Melvin Seals 11/14/14
Quixote's True Blue, Denver, CO
Source # 131746
Entered by x poordevil
Checksums RC_2014-11-14.ffp
Disc Counts 0 / 0
Media Size Compressed: 765.97 MB (803177758 bytes)
Date Circulated
Date Added
11/16/2014
11/16/2014
Download Text | Download Zip
Other Sources
Source Summary
4 Source Matrix: DPA4022 | DPA 4027| DPA 4060 | SBD Source 1: DPA 4022 (XY) V3 -> Tascam DR680 Source 2: DPA 4027 (ORFT) Naiant mid box -> Tascam DR680 Source 3: DPA 4060 (3 foot omni spread) -> Tascam DR680 Source 4: SBD > XLR > Tascam DR680 Location: FOB, DFC. Mics on stand ~8 feet. Transfer: Tascam DR680 (24/96) wav -> USB cable -> PC Editing: Wavelab plugins -> Flac(16)
  Rock Collection
  Nov 14, 2014
  Quixote's True Blue
  Denver, CO
  Total Time = 151:40

  4 Source Matrix:
     DPA4022 | DPA 4027| DPA 4060 | SBD

  Source 1: DPA 4022 (XY) V3 -> Tascam DR680

  Source 2: DPA 4027 (ORFT) Naiant mid box
              -> Tascam DR680

  Source 3: DPA 4060 (3 foot omni spread)
             -> Tascam DR680

  Source 4: SBD > XLR > Tascam DR680

  Location: FOB, DFC. Mics on stand ~8 feet.

  Transfer: Tascam DR680 (24/96) wav ->
  USB cable -> PC

  Editing: Wavelab plugins -> Flac(16)

  MD5's and SBE checked and verified.
  11/15/2014

  Recorded by Patrick H.

  Disc 1  Set 1 (76:28)
  01 Happy 8:03
  02 Melting Pot 9:53
  03 Try > Deal 13:30
  04 Thinking for Yourself 8:42
  05 Years to Come 10:02
  06 Key to the Highway 10:39
  07 Home on the Range > 10:47
  08 > Jam 4:52

  Disc 2  Set 2 (75:05)
  01 Do it Again 11:24
  02 Down by the Seaside 12:02
  03 Watching the River Flow > 10:23
  04 Tear Tags > 6:08
  05 Jam > 6:20
  06 Celebrate 10:08
  07 Got to Get Better > 8:12
  08 Funk Jam > GTGB 10:28

  Notes: Band arrived late due to
  canelation of flights. Show started
  at 11:10 PM and ended at 3:00 AM.
  2 strong one hour plus sets.

  Sound at the venue was good to very
  good. Recording sound is good to very
  good.  Crowd noise can be heard though
  is minimal.

  Thanks to Band, Quixote's and Charles
  Twilling FOB Sound Engineer.

  Performance: A
  Sound Quality: A-

  Support Live Music!


  shntool
    length     expanded size    cdr  WAVE problems  fmt   ratio  filename
     8:03.55       85330604 B   ---   --   -----    wav  1.0000  RC_2014-11-14_S101.wav
     9:53.15      104640524 B   ---   --   -----    wav  1.0000  RC_2014-11-14_S102.wav
    13:30.38      142973420 B   ---   --   -----    wav  1.0000  RC_2014-11-14_S103.wav
     8:42.70       92245484 B   ---   --   -----    wav  1.0000  RC_2014-11-14_S104.wav
    10:02.24      106249292 B   ---   --   -----    wav  1.0000  RC_2014-11-14_S105.wav
    10:39.07      112736108 B   ---   --   -----    wav  1.0000  RC_2014-11-14_S106.wav
    10:47.05      114142604 B   ---   --   -----    wav  1.0000  RC_2014-11-14_S107.wav
     4:52.67       51666428 B   ---   --   -----    wav  1.0000  RC_2014-11-14_S108.wav
    11:24.17      120697628 B   ---   --   -----    wav  1.0000  RC_2014-11-14_S201.wav
    12:02.51      127480796 B   ---   --   -----    wav  1.0000  RC_2014-11-14_S202.wav
    10:23.23      109951340 B   ---   --   -----    wav  1.0000  RC_2014-11-14_S203.wav
     6:08.60       65056364 B   ---   --   -----    wav  1.0000  RC_2014-11-14_S204.wav
     6:20.17       67072028 B   ---   --   -----    wav  1.0000  RC_2014-11-14_S205.wav
    10:08.36      107335916 B   ---   --   -----    wav  1.0000  RC_2014-11-14_S206.wav
     8:12.74       86962892 B   ---   --   -----    wav  1.0000  RC_2014-11-14_S207.wav
    10:28.34      110859212 B   ---   --   -----    wav  1.0000  RC_2014-11-14_S208.wav
   151:40.68     1605400640 B                            1.0000  (16 files)

  ffp
RC_2014-11-14_S101.flac:37824d20c4cd124f64133d071e878c51
RC_2014-11-14_S102.flac:bd384da2f5a00506a45270b7bf896ac6
RC_2014-11-14_S103.flac:11799b0df394a9f62cecb68f117adcfe
RC_2014-11-14_S104.flac:eb93d86bbb3e074d001c8474f8f7a7db
RC_2014-11-14_S105.flac:98faca7ac898afa9c7af516a430f7688
RC_2014-11-14_S106.flac:73e2c3808b2f739f40f0999570d58f3e
RC_2014-11-14_S107.flac:3e0a6ed76a7049bdd0c4cd516b54a270
RC_2014-11-14_S108.flac:58c7f5c4ce314a8526ed6ce9319ed5f3
RC_2014-11-14_S201.flac:3d9e5390d9287dc2338d3fe0382f9483
RC_2014-11-14_S202.flac:05a0c3c29c51bfc0cc5feb79f0bb63e4
RC_2014-11-14_S203.flac:be58c7ba33c4563eac429ae1afb93542
RC_2014-11-14_S204.flac:ff9078374bca3595cca7d601b9136e90
RC_2014-11-14_S205.flac:da3d0cb339a96a90060b07eb5e5481e9
RC_2014-11-14_S206.flac:97d18f97562fc61462a6fd2753b66edc
RC_2014-11-14_S207.flac:90990f5e4a4d3d945bcc094070b4f119
RC_2014-11-14_S208.flac:0a9469e1b6592a6efcef7a41f1fe31a1

RC_2014-11-14_S101.flac:37824d20c4cd124f64133d071e878c51
RC_2014-11-14_S102.flac:bd384da2f5a00506a45270b7bf896ac6
RC_2014-11-14_S103.flac:11799b0df394a9f62cecb68f117adcfe
RC_2014-11-14_S104.flac:eb93d86bbb3e074d001c8474f8f7a7db
RC_2014-11-14_S105.flac:98faca7ac898afa9c7af516a430f7688
RC_2014-11-14_S106.flac:73e2c3808b2f739f40f0999570d58f3e
RC_2014-11-14_S107.flac:3e0a6ed76a7049bdd0c4cd516b54a270
RC_2014-11-14_S108.flac:58c7f5c4ce314a8526ed6ce9319ed5f3
RC_2014-11-14_S201.flac:3d9e5390d9287dc2338d3fe0382f9483
RC_2014-11-14_S202.flac:05a0c3c29c51bfc0cc5feb79f0bb63e4
RC_2014-11-14_S203.flac:be58c7ba33c4563eac429ae1afb93542
RC_2014-11-14_S204.flac:ff9078374bca3595cca7d601b9136e90
RC_2014-11-14_S205.flac:da3d0cb339a96a90060b07eb5e5481e9
RC_2014-11-14_S206.flac:97d18f97562fc61462a6fd2753b66edc
RC_2014-11-14_S207.flac:90990f5e4a4d3d945bcc094070b4f119
RC_2014-11-14_S208.flac:0a9469e1b6592a6efcef7a41f1fe31a1

Comments
Date User Comment
11/16/2014 1478 The Rock Collection is a brand new all-star group featuring Melvin Seals (JGB), Stu Allen (JGB/Phil Lesh and Friends), Dan “Lebo” Lebowitz (ALO), Greg Anton (Zero), and Reed Mathis (Tea Leaf Green).

http://therockcollection.net/
etreedb.org
For administrative requests email contact@etreedb.org
This website written by Tom H Anderson and maintained by the etreedb.org community.

Cached: Thu, 18 Jul 2024 10:52:16 EDT