Grateful Dead 09/02/78
Giants Stadium, East Rutherford, NJ
Source Summary
flac16; 2 Source Matrix by Dusborne; Soundboard (shnid:106818) Recording Info: SBD -> Cassette Master -> Cassette -> Dat -> CD; Transfer Info: CD -> Adobe Audition v3.0 -> Samplitude Professional v11.03 -> FLAC and Audience (shnid:015822) AUDMC > DAT > WAV > SHN; Recorded by Steve Rolfe with two Sony EMC-33P mics > Sony TC-152 deck 50-60 feet left center from the stage
Grateful Dead
September 2, 1978
Giants Stadium
East Rutherford, NJ

2 Source Matrix

Soundboard (shnid:106818)
--------------------------------------------------------------------------------
gd78-09-02.106818.sbd.miller.flac16.zip

Recording Info:
SBD -> Cassette Master -> Cassette -> Dat -> CD

Transfer Info:
CD -> Adobe Audition v3.0 -> Samplitude Professional v11.03 -> FLAC
(3 Discs Audio / 2 Discs FLAC)

All Transfers and Mastering By Charlie Miller
charliemiller87@earthlink.net
March 31, 2010

Patch Info:
Sony ECM-33P -> Cassette Master -> Dat (shnid=15822) supplies:
Looks Like Rain (7:43 - 8:15)
Peggy-O (5:46 - end of track)

Notes:
-- Set 2 is seamless
-- Set 2 sounds a lot better than Set 1
-- Pitch is not perfect but is a lot better
-- Thanks to Joe B. Jones for his help with the pitch correction

Audience (shnid:015822)
-------------------------------------------------------------------------------
gd78-09-02.015822.aud-sonyECM33p.rolfe.weiner.sbeok.t-flac16.zip

Audience Recording

AUDMC > DAT > WAV > SHN

Recorded by Steve Rolfe with two Sony EMC-33P mics > Sony
TC-152 deck 50-60 feet left center from the stage.

A > D by Noah Weiner (noahbw@attbi.com) January, 2003

Master Cassette playback on Nakamichi MR-1 > Fostex D5 DAT
(A>D only) > Turtle Beach Montego II Digital I/O > Sound Forge
(wav edits and track IDs) > SHNTOOL (SBE fix) > MKW Audio
Compression Tool (shn)

Flac encoding notes:
All processing with Trader's Little Helper
Shn - st5 generated
Shn > Flac ( level 8 )
Flac - st5 generated and matched to Shn st5
B. Proctor 2-27-11

--------------------------------------------------------------------------------
---Thank you Charlie Miller for your work on the SBD.
---Thank you Joe B. Jones for pitch correction on the SBD.
---Thank you Steve Rolfe for recording the show.
---Thank you Noah Weiner for your AUD transfer.
---Thank you XJ32 for the art work.
---Thank you Germain for your advice, encouragement, guidance and seeding.

Matrix by dusborne

11-29-2014
------------------------------------------------------------------------------

Set 1

101 - gd78-09-02s1t01 - Tuning
102 - gd78-09-02s1t02 - Jack Straw
103 - gd78-09-02s1t03 - Friend of the Devil
104 - gd78-09-02s1t04 - New Minglewood Blues
105 - gd78-09-02s1t05 - Dire Wolf
106 - gd78-09-02s1t06 - Looks Like Rain
107 - gd78-09-02s1t07 - Stagger Lee
108 - gd78-09-02s1t08 - I Need a Miracle
109 - gd78-09-02s1t09 - Peggy-O
110 - gd78-09-02s1t10 - Lazy Lightning ->
111 - gd78-09-02s1t11 - Supplication

Set 2

201 - gd78-09-02s2t01 - Tuning
202 - gd78-09-02s2t02 - Good Lovin'
203 - gd78-09-02s2t03 - Scarlet Begonias ->
204 - gd78-09-02s2t04 - Fire on the Mountain
205 - gd78-09-02s2t05 - Estimated Prophet ->
206 - gd78-09-02s2t06 - Eyes of the World ->
207 - gd78-09-02s2t07 - Drums ->
208 - gd78-09-02s2t08 - Space ->
209 - gd78-09-02s2t09 - Sugar Magnolia **(mtx->aud)**

Encore
210 - gd78-09-02st10 - One More Saturday Night **(aud only**)
------------------------------------------------------------------------------------

Tagging notes:
Show information is embedded within the headerof each flac file.
It will display on any player capable of directly playing flac files.
If converted to wav during processing, all tags will be stripped,
however audio data will remain unaffected.
If you must transcode to a lossy format, do so directly Flac > Lossy.
Use ffp to validate audio integrity.
Md5 values will change if tagging is altered.

Dave Usborne 11-29-2014
------------------------------------------------------------------------------------

    length     expanded size    cdr  WAVE problems  fmt   ratio  filename
     1:32.23       16282940 B   ---   --   ---xx   flac  0.4606  gd78-09-02s1t01.flac
    11:59.64      126982172 B   ---   --   ---xx   flac  0.5348  gd78-09-02s1t02.flac
    12:22.66      131044076 B   ---   --   ---xx   flac  0.5383  gd78-09-02s1t03.flac
     8:24.10       88929164 B   ---   --   ---xx   flac  0.5233  gd78-09-02s1t04.flac
     6:27.00       68266844 B   ---   --   ---xx   flac  0.5411  gd78-09-02s1t05.flac
    12:16.42      129929228 B   ---   --   ---xx   flac  0.5098  gd78-09-02s1t06.flac
     9:00.41       95352476 B   ---   --   ---xx   flac  0.5495  gd78-09-02s1t07.flac
     8:23.36       88813916 B   ---   --   ---xx   flac  0.5357  gd78-09-02s1t08.flac
    11:09.32      118086908 B   ---   --   ---xx   flac  0.4968  gd78-09-02s1t09.flac
     3:31.14       37253372 B   ---   --   ---xx   flac  0.5808  gd78-09-02s1t10.flac
     6:58.02       73739948 B   ---   --   ---xx   flac  0.5718  gd78-09-02s1t11.flac
     3:25.36       36246716 B   ---   --   ---xx   flac  0.4221  gd78-09-02s2t01.flac
    10:53.25      115248044 B   ---   --   ---xx   flac  0.5462  gd78-09-02s2t02.flac
    14:38.31      154952156 B   ---   --   ---xx   flac  0.5937  gd78-09-02s2t03.flac
    17:20.12      183484268 B   ---   --   ---xx   flac  0.5510  gd78-09-02s2t04.flac
    14:45.69      156276332 B   ---   --   ---xx   flac  0.5925  gd78-09-02s2t05.flac
    15:43.10      166368764 B   ---   --   ---xx   flac  0.5930  gd78-09-02s2t06.flac
     7:10.32       75927308 B   ---   --   ---xx   flac  0.5547  gd78-09-02s2t07.flac
     1:16.45       13512284 B   ---   --   ---xx   flac  0.5799  gd78-09-02s2t08.flac
    12:59.03      137422700 B   ---   --   ---xx   flac  0.5802  gd78-09-02s2t09.flac
     5:03.62       53595068 B   ---   --   ---xx   flac  0.5894  gd78-09-02s2t10.flac
   195:21.55     2067714684 B                            0.5523  (21 files)



ffp
gd78-09-02s1t01.flac:4825e134e5a24c3432c85a682a0d5e81
gd78-09-02s1t02.flac:75b13c7b763f8e74cf3f64176b83f64c
gd78-09-02s1t03.flac:52ac66fcf2e47fdc5f493ffda2cbf8ca
gd78-09-02s1t04.flac:7229ad1101206518f93cba20c5f4822c
gd78-09-02s1t05.flac:6b348aaf47d0c14a9670057fa36a852f
gd78-09-02s1t06.flac:5976a8ac8d61c878cd534cf046e91b6b
gd78-09-02s1t07.flac:e141a4be92d1974c1ec1b96acbaff341
gd78-09-02s1t08.flac:82c0b6d5fbcc949cc89615e37316a85a
gd78-09-02s1t09.flac:1abc0044b9c0ff72d81e07c16e06d3ef
gd78-09-02s1t10.flac:5535ec1b921e5f48fe880febf11eb932
gd78-09-02s1t11.flac:195aa523feca3e3b047b1426d4e2b645
gd78-09-02s2t01.flac:ec063e93ec2717ecac0d6a412083b50c
gd78-09-02s2t02.flac:b72d51c5e67b1eb005d5db73f59cff42
gd78-09-02s2t03.flac:07e884a866e4c7587fb9979437e01271
gd78-09-02s2t04.flac:e2e93d22b755994c13c76a7fa992d412
gd78-09-02s2t05.flac:4f6ab5a142af86ed31c020f8b2f63d57
gd78-09-02s2t06.flac:c09108ee1b554c097af799b404bae6b0
gd78-09-02s2t07.flac:f9129297dc65a3026a70d1225c7e9826
gd78-09-02s2t08.flac:c582bb4019ddbf988b6dbca05fac8a6c
gd78-09-02s2t09.flac:fdde28c6fbd29992085c44f708e5de7a
gd78-09-02s2t10.flac:31ddf060e331710e5fb2d5b708eb491d
b5b07b4a733beb9ec5e54b5514f6dce7 *gd78-09-02s1t01.flac
2c3b7031c38d40592ab2dc1428f0ea19 *gd78-09-02s1t02.flac
814a8b1e29b2d8dc3e604626ede5bb7a *gd78-09-02s1t03.flac
a80ef0bfa5003caebb37ab60c1abc808 *gd78-09-02s1t04.flac
7ce3434868c3352bb0a2d3f852b745f8 *gd78-09-02s1t05.flac
bbc5539a4a5b34672911b1dc9dff10de *gd78-09-02s1t06.flac
cd475b833c511a8d8fddf33225f06c47 *gd78-09-02s1t07.flac
1b498d9a2d74e97cb356a6a29b33bd7f *gd78-09-02s1t08.flac
2d9f54a18d58bec17c33060350150323 *gd78-09-02s1t09.flac
0bc2ab35192f342953d20dffed87b7c2 *gd78-09-02s1t10.flac
5ac8100d3fe27f4eab3170deee7e57d8 *gd78-09-02s1t11.flac
9a629887f73832efcc1d26337c3c575d *gd78-09-02s2t01.flac
9b9222a6a5d13dda79a1d835bf4ca9d4 *gd78-09-02s2t02.flac
7cdfe08ec198761309183ab216b7136c *gd78-09-02s2t03.flac
ba04a67fcd75ce9395505b20a0100f40 *gd78-09-02s2t04.flac
40d78d721d924266017756ac6d675dc3 *gd78-09-02s2t05.flac
f9f8c22a4396339bf8bd112881740b4c *gd78-09-02s2t06.flac
dbfef6178ee0d888b10f5e157185f731 *gd78-09-02s2t07.flac
bb43dc50f8c8f6dfbed4b35517574bbe *gd78-09-02s2t08.flac
90873e18b5bd226542bcdb163095b6ff *gd78-09-02s2t09.flac
9fe2e29c705bf5c625b225960bad5aac *gd78-09-02s2t10.flac

Comments
etreedb.org
For administrative requests email contact@etreedb.org
This website written by Tom H Anderson and maintained by the etreedb.org community.

Cached: Wed, 18 Sep 2019 12:37:46 EDT