Col. Bruce Hampton & Pharaoh's Kitchen 11/23/12
Smith's Olde Bar, Atlanta, GA
Source # 133158
Entered by ziko
Checksums ffp
Disc Counts 0 / 0
Media Size
Date Circulated
Date Added
11/25/2012
05/28/2015
Download Text | Download Zip

Other Sources
Source Summary
Source: Schoeps CCM4V'S(din)>Lunatec V2>Benchmark AD2K> Sound Devices 722 (24/48) FOB/DFC/KFC/ZFC/AARP 15' From Stage, 7' High DSP: Sound Devices 722>Sound Forge 9.0>CD Wave>flac(16)
Col. Bruce Hampton And The Pharaoh's Kitchen
Smith's Olde Bar
Atlanta, Georgia
11/23/2012

Source: Schoeps CCM4V'S(din)>Lunatec V2>Benchmark AD2K>
Sound Devices 722 (24/48)
FOB/DFC/KFC/ZFC/AARP 15' From Stage, 7' High
DSP: Sound Devices 722>Sound Forge 9.0>CD Wave>flac(16)
Recorded By: Z-Man
Seeded By: Z-Man

Disc I 1st Set

01 ?
02 *Ain't Nothin' You Can Do
03 *Smokestack Lightnin'
04 Fixin' To Die
05 There Was A Time
06 *#Pharaoh's Kitchen
07 *#Look Over Yonder's Wall >
08 *#Got My Mojo Workin' >
09 *#Look Over Yonder's Wall >
10 *#I'm Feelin' Good, All The Time

Disc II 2nd Set

01 Tuning
02 *@Time Is Free >
03 *@Bless your Soul
04 Surrender >
05 *@I'm So Glad >
06 *@Goodnight Irene >
07 *@Hide And Seek >
08 *@Goodnight Irene

* With Denny Walley on 12 String Guitar
# With ? On Trumpet
@ With Jezz Graham On Keyboards

Col. Bruce Hampton - Guitar And Vocals
AJ Ghent - Slide Steel Guitar
Ted Pecchio - Bass And Vocals
Eric Fontaine - Bass Sax
John M - Keyboards
Sonny Williams - Drums
Chuck ? - Percussion

Flac Fingerprint

colbruce2012-11-23d01t01.flac:8a74cc470de757fa3e05831bc53b48b0
colbruce2012-11-23d01t02.flac:0b52e78592b453bbd4727f82f03d0270
colbruce2012-11-23d01t03.flac:6649bb264f4a5c3ef857242de784056e
colbruce2012-11-23d01t04.flac:4362a90bb39f7c83363a201b196b5f16
colbruce2012-11-23d01t05.flac:e2127811fb01d92338d256990d726a22
colbruce2012-11-23d01t06.flac:cbd10c8485a114411d71df7491735253
colbruce2012-11-23d01t07.flac:062964e43d905b88d74cf9ee54273170
colbruce2012-11-23d01t08.flac:602e09e4fb994dd867252647e6546924
colbruce2012-11-23d01t09.flac:76e826c5f6b6d423b781ae084a4a637f
colbruce2012-11-23d01t10.flac:cd9f4ed074480114401d333eab28bfec
colbruce2012-11-23d02t01.flac:542184395f024d9fa9cd5545735b6fd7
colbruce2012-11-23d02t02.flac:badeb0d041b1832b545b53874d5b0e81
colbruce2012-11-23d02t03.flac:7eac9d67b5b73cae9690dca2b144116a
colbruce2012-11-23d02t04.flac:a640d554b22076e6080428dac9f86f5d
colbruce2012-11-23d02t05.flac:832e65dcfdf3e9e842bb66338c1fb734
colbruce2012-11-23d02t06.flac:1f16a9381505bb4f045346bcbb5c37ad
colbruce2012-11-23d02t07.flac:27ecb286d6ac6e00fe915b13f22a2e2e
colbruce2012-11-23d02t08.flac:f0fd78513a29ee8dc595ad49bf034f75

Shntool

    length     expanded size    cdr  WAVE problems  fmt   ratio  filename
     7:03.51       74737196 B   ---   --   ---xx   flac  0.4286  colbruce2012-11-23d01t01.flac
     9:25.32       99741308 B   ---   --   ---xx   flac  0.4805  colbruce2012-11-23d01t02.flac
     4:55.15       52073324 B   ---   --   ---xx   flac  0.5018  colbruce2012-11-23d01t03.flac
     7:21.56       77924156 B   ---   --   ---xx   flac  0.5109  colbruce2012-11-23d01t04.flac
     9:24.10       99513164 B   ---   --   ---xx   flac  0.5265  colbruce2012-11-23d01t05.flac
     9:57.13      105341420 B   ---   --   ---xx   flac  0.4796  colbruce2012-11-23d01t06.flac
     0:57.18       10097180 B   ---   --   ---xx   flac  0.4114  colbruce2012-11-23d01t07.flac
     6:21.24       67264892 B   ---   --   ---xx   flac  0.4815  colbruce2012-11-23d01t08.flac
     3:59.62       42305468 B   ---   --   ---xx   flac  0.3746  colbruce2012-11-23d01t09.flac
    10:20.32      109443308 B   ---   --   ---xx   flac  0.4860  colbruce2012-11-23d01t10.flac
     0:20.22        3579788 B   ---   --   ---xx   flac  0.2597  colbruce2012-11-23d02t01.flac
    17:01.57      180238508 B   ---   --   ---xx   flac  0.4853  colbruce2012-11-23d02t02.flac
     9:50.42      104174828 B   ---   --   ---xx   flac  0.4863  colbruce2012-11-23d02t03.flac
     5:40.62       60121868 B   ---   --   ---xx   flac  0.4315  colbruce2012-11-23d02t04.flac
     9:50.41      104172476 B   ---   --   ---xx   flac  0.4146  colbruce2012-11-23d02t05.flac
     2:06.27       22289948 B   ---   --   ---xx   flac  0.4381  colbruce2012-11-23d02t06.flac
     0:51.48        9109340 B   ---   --   ---xx   flac  0.4065  colbruce2012-11-23d02t07.flac
     1:34.51       16701596 B   ---   --   ---xx   flac  0.3491  colbruce2012-11-23d02t08.flac
   117:02.63     1238829768 B                            0.4697  (18 files)



ffp
colbruce2012-11-23d01t01.flac:8a74cc470de757fa3e05831bc53b48b0
colbruce2012-11-23d01t02.flac:0b52e78592b453bbd4727f82f03d0270
colbruce2012-11-23d01t03.flac:6649bb264f4a5c3ef857242de784056e
colbruce2012-11-23d01t04.flac:4362a90bb39f7c83363a201b196b5f16
colbruce2012-11-23d01t05.flac:e2127811fb01d92338d256990d726a22
colbruce2012-11-23d01t06.flac:cbd10c8485a114411d71df7491735253
colbruce2012-11-23d01t07.flac:062964e43d905b88d74cf9ee54273170
colbruce2012-11-23d01t08.flac:602e09e4fb994dd867252647e6546924
colbruce2012-11-23d01t09.flac:76e826c5f6b6d423b781ae084a4a637f
colbruce2012-11-23d01t10.flac:cd9f4ed074480114401d333eab28bfec
colbruce2012-11-23d02t01.flac:542184395f024d9fa9cd5545735b6fd7
colbruce2012-11-23d02t02.flac:badeb0d041b1832b545b53874d5b0e81
colbruce2012-11-23d02t03.flac:7eac9d67b5b73cae9690dca2b144116a
colbruce2012-11-23d02t04.flac:a640d554b22076e6080428dac9f86f5d
colbruce2012-11-23d02t05.flac:832e65dcfdf3e9e842bb66338c1fb734
colbruce2012-11-23d02t06.flac:1f16a9381505bb4f045346bcbb5c37ad
colbruce2012-11-23d02t07.flac:27ecb286d6ac6e00fe915b13f22a2e2e
colbruce2012-11-23d02t08.flac:f0fd78513a29ee8dc595ad49bf034f75

Comments
Date User Comment
etreedb.org
For administrative requests email contact@etreedb.org
This website written by Tom H Anderson and maintained by the etreedb.org community.

Cached: Tue, 24 Nov 2020 01:42:59 EST