Grateful Dead 04/22/78
Nashville Municipal Auditorium, Nashville, TN
Source # 133792
Entered by Matt Vernon
Checksums ffp , flac-md5
Disc Counts 0 / 0
Media Size Compressed: 945.17 MB (991081552 bytes)
Uncompressed: 1.72 GB (1841899120 bytes)
Date Circulated
Date Added
05/17/2015
07/17/2015
Source Summary
flac16; Recording Info: SBD -> Master Reel -> Dat (44.1k); Transfer Info: Dat -> Samplitude Professional v11.2 -> FLAC; All Transfers and Mastering By Charlie Miller
Grateful Dead - April 22, 1978
Municipal Auditorium - Nashville, TN

Recording Info:
SBD -> Master Reel -> Dat (44.1k)

Transfer Info:
Dat -> Samplitude Professional v11.2 -> FLAC
(3 Discs Audio / 2 Discs FLAC)

All Transfers and Mastering By Charlie Miller
charliemiller87@earthlink.net
January 24, 2011

Patch Info:
Sony ECM-250 -> Cassette Master (shnid=92808) supplies:
Drums (0:56 - 1:18)

Notes:
-- Set 2 is seamless

Set 1:
d1t01 - Bertha ->
d1t02 - Good Lovin'
d1t03 - Candyman
d1t04 - Looks Like Rain
d1t05 - Tennessee Jed
d1t06 - Jack Straw
d1t07 - Peggy-O
d1t08 - New Minglewood Blues
d1t09 - Deal

Set 2:
d2t01 - Tuning
d2t02 - Lazy Lightnin' ->
d2t03 - Supplication
d2t04 - It Must Have Been The Roses
d2t05 - Estimated Prophet ->
d2t06 - Eyes Of The World ->
d2t07 - Drums ->
d3t01 - Not Fade Away ->
d3t02 - Wharf Rat ->
d3t03 - Sugar Magnolia

Encore:
d3t04 - One More Saturday Night


SHNTOOL OUTPUT:
    length     expanded size   cdr  WAVE problems filename
     7:35.21       80311436    ---   --   -----   gd78-04-22d1t01.wav
     7:49.01       82733996    ---   --   -----   gd78-04-22d1t02.wav
     8:28.56       89742956    ---   --   -----   gd78-04-22d1t03.wav
     8:57.61       94870316    ---   --   -----   gd78-04-22d1t04.wav
    10:00.44      105943532    ---   --   -----   gd78-04-22d1t05.wav
     6:09.74       65265692    ---   --   -----   gd78-04-22d1t06.wav
     8:42.56       92212556    ---   --   -----   gd78-04-22d1t07.wav
     6:05.45       64491884    ---   --   -----   gd78-04-22d1t08.wav
     7:32.33       79810460    ---   --   -----   gd78-04-22d1t09.wav
     1:45.28       18587900    ---   --   -----   gd78-04-22d2t01.wav
     3:22.47       35743388    ---   --   -----   gd78-04-22d2t02.wav
     6:45.00       71442044    ---   --   -----   gd78-04-22d2t03.wav
     9:27.74      100192892    ---   --   -----   gd78-04-22d2t04.wav
    12:32.14      132685772    ---   --   -----   gd78-04-22d2t05.wav
    12:36.54      133485452    ---   --   -----   gd78-04-22d2t06.wav
    14:17.60      151315964    ---   --   -----   gd78-04-22d2t07.wav
    11:00.62      116569868    ---   --   -----   gd78-04-22d3t01.wav
    12:06.66      128221676    ---   --   -----   gd78-04-22d3t02.wav
    13:08.60      139144364    ---   --   -----   gd78-04-22d3t03.wav
     5:35.14       59126972    ---   --   -----   gd78-04-22d3t04.wav
   174:01.45     1841899120 B                     (totals for 20 files)





ffp
gd78-04-22d1t01.flac:3cb965a4cdacb5801df3d12536b33e6c
gd78-04-22d1t02.flac:d41a9c0d4272e52aa19199b53f5ef263
gd78-04-22d1t03.flac:eac559fcf7748d71aa0a4da7db30ad54
gd78-04-22d1t04.flac:2bde61e8eb18bb4e667e8cdb7dee5ddf
gd78-04-22d1t05.flac:b9d2f390c6137e128e80e006115c9522
gd78-04-22d1t06.flac:39fc3eb8db68f0047d47887d4da4bbbe
gd78-04-22d1t07.flac:71b1cc56656fbd5bf34950639bf1e075
gd78-04-22d1t08.flac:55fcd0be7455941964f7561fd2f7e8d0
gd78-04-22d1t09.flac:d48e21032af3fd3a161ae22c9920905f
gd78-04-22d2t01.flac:14fc479fcb2ad0dbb5e737cd2e6d3b36
gd78-04-22d2t02.flac:4d45a626216ec16520caba7a280bbd82
gd78-04-22d2t03.flac:13fd18ddfb4281f5d7b9ec2da1abd9a5
gd78-04-22d2t04.flac:9a4d1c73eab298e75ab93ecdf31c9300
gd78-04-22d2t05.flac:2fb936b7a37740b844527e4b03a43275
gd78-04-22d2t06.flac:bb0103842cfbfd6a65ef9d0904920af4
gd78-04-22d2t07.flac:b48e4fa156441329037734b38bdce7d1
gd78-04-22d3t01.flac:61dc307131f6a1296c9f5df4ca20b47e
gd78-04-22d3t02.flac:144863c7d725abd1354ac13e9732a594
gd78-04-22d3t03.flac:3a4ece8e4842f7695b3d9e736122e707
gd78-04-22d3t04.flac:f53477acde2049ba955cc248b06f3a87
6e00e0d5a7f79558847f644d1ff74fcc *gd78-04-22d1t01.flac
89e4b42ed7df7d740966984318cfa3b6 *gd78-04-22d1t02.flac
76ae18c897f0d8fdbd2fbb1c19206c37 *gd78-04-22d1t03.flac
fac9589c82231de6f48062adb3ba1cc4 *gd78-04-22d1t04.flac
f9ec621679b2c837fd707700a421c2dd *gd78-04-22d1t05.flac
0c9cdba69f77793eccef25511b735792 *gd78-04-22d1t06.flac
6f8bff10cc89b4e17bc643c9cfa38ec3 *gd78-04-22d1t07.flac
a64f712824d9f4eae543e2cc3f56729f *gd78-04-22d1t08.flac
814bd82fee3da08b0867eb50cf652661 *gd78-04-22d1t09.flac
f2fbc8a661d5da9ae36a248172d89c5c *gd78-04-22d2t01.flac
c0fe2f24e57bbbbaa4447f1c69492f5c *gd78-04-22d2t02.flac
0019ff4b264c4387e46b73b1d8a5b988 *gd78-04-22d2t03.flac
086849a07a52a19dce50ecd77df648e8 *gd78-04-22d2t04.flac
1a8f9708464b022a82211c0d032b519d *gd78-04-22d2t05.flac
66665a3a63cfcf439e049566712dadd7 *gd78-04-22d2t06.flac
b8c9d2a6c4a8fe45809b91b0fc9fe5f0 *gd78-04-22d2t07.flac
e6d2e807b1fb3b85af101d24845c2212 *gd78-04-22d3t01.flac
c98708f96c8153b8e43dc144fad264c2 *gd78-04-22d3t02.flac
8a7677a6969d92ac28b3536bcb9464a6 *gd78-04-22d3t03.flac
1a29eaf6becd3eb3b6bcf2aaa41b15d0 *gd78-04-22d3t04.flac

Comments
etreedb.org
For administrative requests email contact@etreedb.org
This website written by Tom H Anderson and maintained by the etreedb.org community.

Cached: Sat, 19 Oct 2019 16:55:44 EDT