Grateful Dead 04/12/78
Cameron Indoor Stadium, Duke University, Durham, NC
Source Summary
flac16; Matrix 2 Source Mix - SBD (shnid=107256) Recording Info:SBD -> Master Reel -> PCM -> Dat (44.1k); Transfer Info:Dat (Sony R500) -> Sound Devices 744T -> Samplitude Professional v11.03 -> FLAC; All Transfers and Mastering By Charlie Miller + AUD (shnid=105875) Recording Info:(FOB) Sony 54P -> Cassette Master (Sony TC-158); Transfer Info:Cassette Master (Tascam 122mkII) -> Apogee MiniMe (24bit/48k) -> Samplitude Professional v11.03 -> FLAC/16; Recorded By Robert Wagner; All Transfers and Mastering By Charlie Miller - matrix mixing by Kevin Tobin
Grateful Dead
Duke University
Cameron Indoor Stadium
Durham, NC
April 12, 1978

SBD + AUD Matrix 2 Source Mix(51%-SBD/49%-AUD)

Set 1:
d1t01 - Tuning
d1t02 - Jack Straw
d1t03 - Dire Wolf
d1t04 - Beat It on Down the Line
d1t05 - Peggy-O
d1t06 - Mama Tried ->
d1t07 - Mexicali Blues
d1t08 - Funiculi Funicula
d1t09 - Row Jimmy
d1t10 - New Minglewood Blues
d1t11 - Loser
d1t12 - Lazy Lightnin' ->
d1t13 - Supplication

Set 2:
d2t01 - Tuning
d2t02 - Bertha ->
d2t03 - Good Lovin'
d2t04 - It Must Have Been the Roses
d2t05 - Estimated Prophet ->
d2t06 - Eyes of the World ->
d2t07 - Drums ->
d3t01 - Truckin' ->
d3t02 - Wharf Rat ->
d3t03 - Around & Around

Encore:
d3t04 - U.S. Blues

Audio Source Information
SBD (shnid = 107156)
Recording Info:
SBD -> Master Reel -> PCM -> Dat (44.1k)

Transfer Info:
Dat (Sony R500) -> Sound Devices 744T -> Samplitude Professional v11.03 -> FLAC
(3 Discs Audio / 2 Discs FLAC)

Patch Info:
(FOB) Sony 54P -> Cassette Master (shnid=105875) supplies:
Eyes Of The World (8:27 - 8:59)
Wharf Rat (10:19 - end of track)
Around And Around (0:00 - 0:08)

All Transfers and Mastering By Charlie Miller
charliemiller87@earthlink.net
April 9, 2010
fixed version: April 17, 2010

Notes:
-- Set 2 is seamless
-- This is a fix of shnid=106985 (Fix skip in Mama Tried)

AUD (shnid=105875)
Recording Info:
(FOB) Sony 54P -> Cassette Master (Sony TC-158)

Transfer Info:
Cassette Master (Tascam 122mkII) -> Apogee MiniMe (24bit/48k) ->
Samplitude Professional v11.03 -> FLAC/16
(3 Discs Audio / 2 Discs FLAC)

All Transfers and Mastering By Charlie Miller
charliemiller87@earthlink.net
February 6, 2010

Notes:
-- Set 2 disc change is seamless
-- Recorded By Robert Wagner
-- This is from an old transfer I did years ago

For the matrix only, the Soundboard patches in both Eyes and Wharf Rat/Around & Around listed above used the audio from the video to ensure no phase problems.
---------------------------------------------------------
- Mixed by kevtobin@yahoo.com
- FLAC conversion 07-NOV-2015 - Trader Little Helper
- Tagged 07-NOV-2015 - Tag&Rename
---------------------------------------------------------
Multitrack Mixdown Settings

SET ONE
Stereo Matrix
SBD + 0.5
AUD 0

SET TWO
Stereo Matrix
SBD + 0.5
AUD 0
---------------------------------------------------------

Brokedown House Production

    length     expanded size    cdr  WAVE problems  fmt   ratio  filename
     1:50.02       19408748 B   ---   --   -----    wav  1.0000  gd1978-04-12d1t01.wav
     8:10.25       86494844 B   ---   --   -----    wav  1.0000  gd1978-04-12d1t02.wav
     7:11.64       76178972 B   ---   --   -----    wav  1.0000  gd1978-04-12d1t03.wav
     5:29.07       58052108 B   ---   --   -----    wav  1.0000  gd1978-04-12d1t04.wav
     8:49.63       93463820 B   ---   --   -----    wav  1.0000  gd1978-04-12d1t05.wav
     2:30.17       26500028 B   ---   --   -----    wav  1.0000  gd1978-04-12d1t06.wav
     4:01.65       42665324 B   ---   --   -----    wav  1.0000  gd1978-04-12d1t07.wav
     1:59.43       21092780 B   ---   --   -----    wav  1.0000  gd1978-04-12d1t08.wav
    10:58.70      116235884 B   ---   --   -----    wav  1.0000  gd1978-04-12d1t09.wav
     5:52.22       62144588 B   ---   --   -----    wav  1.0000  gd1978-04-12d1t10.wav
     9:46.47      103480988 B   ---   --   -----    wav  1.0000  gd1978-04-12d1t11.wav
     3:51.05       40760204 B   ---   --   -----    wav  1.0000  gd1978-04-12d1t12.wav
     5:51.00       61916444 B   ---   --   -----    wav  1.0000  gd1978-04-12d1t13.wav
     3:14.69       34383932 B   ---   --   -----    wav  1.0000  gd1978-04-12d2t01.wav
     7:28.40       79121324 B   ---   --   -----    wav  1.0000  gd1978-04-12d2t02.wav
    10:00.34      105920012 B   ---   --   -----    wav  1.0000  gd1978-04-12d2t03.wav
    10:47.73      114302540 B   ---   --   -----    wav  1.0000  gd1978-04-12d2t04.wav
    11:38.01      123129596 B   ---   --   -----    wav  1.0000  gd1978-04-12d2t05.wav
    12:14.19      129522332 B   ---   --   -----    wav  1.0000  gd1978-04-12d2t06.wav
    26:13.14      277510172 B   ---   --   -----    wav  1.0000  gd1978-04-12d2t07.wav
     8:48.38       93228620 B   ---   --   -----    wav  1.0000  gd1978-04-12d3t01.wav
    10:36.15      112225724 B   ---   --   -----    wav  1.0000  gd1978-04-12d3t02.wav
     9:30.15      100583324 B   ---   --   -----    wav  1.0000  gd1978-04-12d3t03.wav
     5:41.11       60178316 B   ---   --   -----    wav  1.0000  gd1978-04-12d3t04.wav
   192:36.09     2038500624 B                            1.0000  (24 files)



8413d9861ee033a8b9429ab83d3aee3d *gd1978-04-12d1t01.flac
5fe66e9c4437088cdc5cde0c6f042a2d *gd1978-04-12d1t02.flac
95a9ffa2da17f339ad69ff5c049d4998 *gd1978-04-12d1t03.flac
bbdf93381df5330c56f19b7d05a8369a *gd1978-04-12d1t04.flac
3f474f3fd647cb7167d558c74e3d80a4 *gd1978-04-12d1t05.flac
8f72d01260b6a1573f4e85a0d2a6a2f9 *gd1978-04-12d1t06.flac
5b88f36b79905570b1df6091853c70a1 *gd1978-04-12d1t07.flac
f7780bcaae483905aa542c37c65b2484 *gd1978-04-12d1t08.flac
939b1deb39bbce1312044325cdc70e6c *gd1978-04-12d1t09.flac
5def77b1780adb35a0e0d0335de06c9e *gd1978-04-12d1t10.flac
fd312bee8435ea9ed9a138ce322fa269 *gd1978-04-12d1t11.flac
bd1dfa359ac455c9b6bfb99e55dc810f *gd1978-04-12d1t12.flac
1c9e6550cdf9d27b6f9535c56672379a *gd1978-04-12d1t13.flac
de74075b7aca8aa10bb94060ca3fb34f *gd1978-04-12d2t01.flac
bb882c5c12ac80b33bad43a47b5c163d *gd1978-04-12d2t02.flac
3db59b138a669899f31e939bec8798b8 *gd1978-04-12d2t03.flac
5524ce2da03ed20386e467c562208c2c *gd1978-04-12d2t04.flac
5326f6766006a94f1da7b9c51b2ef8f6 *gd1978-04-12d2t05.flac
a65f9103fd860339853acb849aeb139f *gd1978-04-12d2t06.flac
ad071cf77d92b5300dc196f4d0dda3b7 *gd1978-04-12d2t07.flac
caee68e1fe9cf1ea2c96bb9f40abb145 *gd1978-04-12d3t01.flac
046bf4b53f36a00780b82544bdc8d840 *gd1978-04-12d3t02.flac
e20a850a5e696457040c35599dc7d0dc *gd1978-04-12d3t03.flac
5e28e0278be92c3d45e2fdeacf738eea *gd1978-04-12d3t04.flac
ffp
gd1978-04-12d1t01.flac:c8b8de34e400711d0c7c0a38ae04b478
gd1978-04-12d1t02.flac:e4f6e157b1355ab4a74f9c6ffc818964
gd1978-04-12d1t03.flac:d49c5134d04372661b29d98d4fff920c
gd1978-04-12d1t04.flac:31071e3571b2b50c9d76cc5df916c866
gd1978-04-12d1t05.flac:05f84a8e8e00788d69d4e8f3e00c3540
gd1978-04-12d1t06.flac:1adce3aa25ece8dbc935a0839c658aba
gd1978-04-12d1t07.flac:21f6966a1ddccd3b9d748e926b447d86
gd1978-04-12d1t08.flac:d50a951c8774ea26d2d3f49714c28ced
gd1978-04-12d1t09.flac:93c76d7dc16bc5323974c69b21180a1d
gd1978-04-12d1t10.flac:da9ef01054a9a1531d3023d37d706cfa
gd1978-04-12d1t11.flac:853a321ba58a69365d28ab5c36fd4b23
gd1978-04-12d1t12.flac:9455c1d41896c1af70e16091d2bbb09f
gd1978-04-12d1t13.flac:6e01f7fed446d71cb61724c49e9df52d
gd1978-04-12d2t01.flac:1a0aca15075198000ba721251f1c3f5c
gd1978-04-12d2t02.flac:37b0619b56daa5aa2d56fd8c308e5e2f
gd1978-04-12d2t03.flac:943e9f127964ab897458da26690c6e45
gd1978-04-12d2t04.flac:4bb85b78326ca2822dd9106251ad8709
gd1978-04-12d2t05.flac:ae483539a7ea8e8f48c7d3df4ff569fa
gd1978-04-12d2t06.flac:c7ca25d9472b15e6fed6dc2337032214
gd1978-04-12d2t07.flac:5a6f2eeab6167d79477fd0b785fb796a
gd1978-04-12d3t01.flac:c4b12c1e21139b0a589519b09d8c3ace
gd1978-04-12d3t02.flac:ed54ba8f2576e43f23841c6976d9c628
gd1978-04-12d3t03.flac:7827fb2cea86384ceb0045b4a3ed4175
gd1978-04-12d3t04.flac:657cecc7e4d2ed9bb1341698308e58db

Comments
etreedb.org
For administrative requests email contact@etreedb.org
This website written by Tom H Anderson and maintained by the etreedb.org community.

Cached: Sun, 17 Nov 2019 18:17:36 EST