Grateful Dead 01/11/78
Shrine Auditorium, Los Angeles, CA
Source Summary
flac16; Recording Info: SBD -> Cassette Master -> AIFF (24bit/96k); Transfer Info: AIFF -> Samplitude Professional v11.2.1 -> FLAC/16; All Mastering By Charlie Miller; the original version had errors in the tracking; [lease don't circulate the original (19 track) version
Grateful Dead - January 11, 1978
Shrine Auditorium - Los Angeles, CA

Recording Info:
SBD -> Cassette Master -> AIFF (24bit/96k)

Transfer Info:
AIFF -> Samplitude Professional v11.2.1 -> FLAC/16
(2 Discs Audio / 1 DVD FLAC)

All Mastering By Charlie Miller
charliemiller87@earthlink.net
April 12, 2016

Notes:
-- Disc change is seamless
-- The has the track listing correcetd

Set 1:
d1t01 - Tuning
d1t02 - New Minglewood Blues
d1t03 - Dire Wolf
d1t04 - Looks Like Rain
d1t05 - They Love Each Other
d1t06 - Big River ->
d1t07 - El Paso
d1t08 - Brown Eyed Women
d1t09 - Let It Grow

Set 2:
d1t10 - Tuning
d1t11 - Samson And Delilah
d2t01 - Sunrise
d2t02 - Terrapin Station ->
d2t03 - Playing In The Band ->
d2t04 - Drums ->
d2t05 - Space ->
d2t06 - Saint Stephen ->
d2t07 - Not Fade Away ->
d2t08 - Playing In The Band

Encore:
d2t09 - Passenger


SHNTOOL OUTPUT:
   length     expanded size    cdr  WAVE problems  fmt   ratio  filename
    2:01.63       21492620 B   ---   --   ---xx   flac  0.5065  gd78-01-11d1t01.flac
    7:31.01       79558796 B   ---   --   ---xx   flac  0.5832  gd78-01-11d1t02.flac
    5:22.01       56803196 B   ---   --   ---xx   flac  0.5875  gd78-01-11d1t03.flac
   10:01.40      106110524 B   ---   --   ---xx   flac  0.5672  gd78-01-11d1t04.flac
    9:37.04      101792252 B   ---   --   ---xx   flac  0.5713  gd78-01-11d1t05.flac
    5:57.60       63115964 B   ---   --   ---xx   flac  0.6218  gd78-01-11d1t06.flac
    5:47.71       61377836 B   ---   --   ---xx   flac  0.5772  gd78-01-11d1t07.flac
    8:09.44       86363132 B   ---   --   ---xx   flac  0.5545  gd78-01-11d1t08.flac
   12:22.28      130954700 B   ---   --   ---xx   flac  0.6100  gd78-01-11d1t09.flac
    1:46.05       18710204 B   ---   --   ---xx   flac  0.5010  gd78-01-11d1t10.flac
   10:01.17      106056428 B   ---   --   ---xx   flac  0.5997  gd78-01-11d1t11.flac
    7:01.36       74349116 B   ---   --   ---xx   flac  0.5475  gd78-01-11d2t01.flac
   11:37.02      122955548 B   ---   --   ---xx   flac  0.5957  gd78-01-11d2t02.flac
   15:27.07      163539308 B   ---   --   ---xx   flac  0.6135  gd78-01-11d2t03.flac
    1:46.68       18858380 B   ---   --   ---xx   flac  0.5820  gd78-01-11d2t04.flac
    3:29.28       36933500 B   ---   --   ---xx   flac  0.5817  gd78-01-11d2t05.flac
    9:50.42      104174828 B   ---   --   ---xx   flac  0.6150  gd78-01-11d2t06.flac
   12:41.14      134273372 B   ---   --   ---xx   flac  0.5832  gd78-01-11d2t07.flac
    7:15.44       76837532 B   ---   --   ---xx   flac  0.5679  gd78-01-11d2t08.flac
    5:04.29       53693852 B   ---   --   ---xx   flac  0.6304  gd78-01-11d2t09.flac
  152:52.04     1617951088 B                            0.5878  (20 files)



gd78-01-11d1t01.flac:3f842d66c4795100f14a380e11066755
gd78-01-11d1t02.flac:15ce575f7165f0646fc912567c9070bc
gd78-01-11d1t03.flac:b3f40e58dfa1d585e82e90ad5657afd4
gd78-01-11d1t04.flac:dfcb79aef36c2709987b154eaf75fb8e
gd78-01-11d1t05.flac:dbf632fb449b60ef71df2b64997124d6
gd78-01-11d1t06.flac:6f25d7810352a727616339cd8e7c7107
gd78-01-11d1t07.flac:dfcbb43822ddde57ed02d7648c0f7757
gd78-01-11d1t08.flac:a8ccedfac9ea92e971f3ce7158489dff
gd78-01-11d1t09.flac:862b4b5f9bc59cf5bfecb956a2c42b0a
gd78-01-11d1t10.flac:3b60594723ea85cb1608ff68cd7e237f
gd78-01-11d2t01.flac:fae7fd183011327fcc6a2162f617ef94
gd78-01-11d2t02.flac:8af0e0c5d951231f5c7fb9ac471b8966
gd78-01-11d2t03.flac:0b21a7483d159c453219e4e9a645149b
gd78-01-11d2t04.flac:b9a8f5ef66e3167f0dd5f44cdf16cd55
gd78-01-11d2t05.flac:f61e12d5d8f7b9958192e4e0089c8c6d
gd78-01-11d2t06.flac:6553b72d7fc6a8f5690303e675107649
gd78-01-11d2t07.flac:a7e3e6d849d42bc58e50b60730b991de
gd78-01-11d2t08.flac:c625fc012542c8e9f54f2c2f43e55a83
gd78-01-11d2t09.flac:1a142dc1fd6ae00a6c8b08636bcb5c22
ffp
gd78-01-11d1t01.flac:18545e723882ef9731e4f516ea6afa7e
gd78-01-11d1t02.flac:8153630711802f3d0487dcc232b3530a
gd78-01-11d1t03.flac:afb4d0327dfea81a1f795088352d912f
gd78-01-11d1t04.flac:7da10baa210a502f81bf630e35576c77
gd78-01-11d1t05.flac:e1e0d68409e9554422505241c19bcf88
gd78-01-11d1t06.flac:41551f9ec9a57784a1722a8c5785811d
gd78-01-11d1t07.flac:e736efd5aa9b8c046c4d1488080c0726
gd78-01-11d1t08.flac:784a7c4962e1d3e1775d2559404dc15b
gd78-01-11d1t09.flac:eb59773f358f5c1e74068c40233dc698
gd78-01-11d1t10.flac:06bb543aa364b69e722b0c583c9704a9
gd78-01-11d1t11.flac:3dcdb3a93ee62f9044ad2d8781bdb74a
gd78-01-11d2t01.flac:c936d5f5a38a88d9fda4eecdd9543a05
gd78-01-11d2t02.flac:a9c01f8c9147dfb91c347d08ac1c591d
gd78-01-11d2t03.flac:3f2b3bedc7853ceee7974464c960485e
gd78-01-11d2t04.flac:2f3e53d0ff269b308f6014fe3c684f69
gd78-01-11d2t05.flac:c8cdcd740168f663ecd173315b07ed62
gd78-01-11d2t06.flac:ec38c4fd0a28e85277a06bb4f763b544
gd78-01-11d2t07.flac:fe98e148e7c2c15f87e25037c9d0a3b8
gd78-01-11d2t08.flac:5bee1e928de5eaa4503f010970874db2
gd78-01-11d2t09.flac:be1115185ef6c46248962d8167982660
120442a6443a5f93f47d4f8204c65e06 *gd78-01-11d1t01.flac
2420cd19c009e55d9cdd8d0b82c8ae5a *gd78-01-11d1t02.flac
f95d0fc8436fbd142b726bd08f10e211 *gd78-01-11d1t03.flac
af15cd101cbca81564f2eed5661180d7 *gd78-01-11d1t04.flac
68a190cbe979e1e5921905fc5310e0d2 *gd78-01-11d1t05.flac
09473d0a69d9ec50cea126506be02126 *gd78-01-11d1t06.flac
40c7e9acc763aac7b60d4939e505cebe *gd78-01-11d1t07.flac
6d1ba3dd9cce8d276542314006d6b6fe *gd78-01-11d1t08.flac
9de486b48a1e38f1a31ae962685eb692 *gd78-01-11d1t09.flac
1b425b6bc34924bad9f73c9008213df8 *gd78-01-11d1t10.flac
3e1bf8d7f180e0f6f9cda25e70932475 *gd78-01-11d1t11.flac
fab72b264fd90a96067e2d10f3ad3529 *gd78-01-11d2t01.flac
c832be9194bdad5b7632d2d7c75dd6d0 *gd78-01-11d2t02.flac
15aa50426254ac21c3d8097560510768 *gd78-01-11d2t03.flac
750340180114160c8a4c0b982adb4af3 *gd78-01-11d2t04.flac
0bd61b8091ea5d5e016d98b83334eed2 *gd78-01-11d2t05.flac
dee0a6052fc7af666ece82020cbedc28 *gd78-01-11d2t06.flac
4801edf5e7dc36c305c7006a47d0af8b *gd78-01-11d2t07.flac
2e86fc1aa685341f95d151e62b541c9f *gd78-01-11d2t08.flac
8aaa6fb0b72cbd119b33b4ca9a69be8f *gd78-01-11d2t09.flac

Comments
etreedb.org
For administrative requests email contact@etreedb.org
This website written by Tom H Anderson and maintained by the etreedb.org community.

Cached: Tue, 17 Sep 2019 09:22:07 EDT