Grateful Dead 01/11/78
Shrine Auditorium, Los Angeles, CA
Source Summary
flac24; Recording Info: SBD -> Cassette Master -> AIFF (24bit/96k); Transfer Info: AIFF -> Samplitude Professional v11.2.1 -> FLAC/24; All Mastering By Charlie Miller
Grateful Dead - January 11, 1978
Shrine Auditorium - Los Angeles, CA

Recording Info:
SBD -> Cassette Master -> AIFF (24bit/96k)

Transfer Info:
AIFF -> Samplitude Professional v11.2.1 -> FLAC/24
(1 DVD FLAC)

All Mastering By Charlie Miller
charliemiller87@earthlink.net
April 12, 2016

Notes:
-- Disc change is seamless
-- The has the track listing correcetd

Set 1:
d1t01 - Tuning
d1t02 - New Minglewood Blues
d1t03 - Dire Wolf
d1t04 - Looks Like Rain
d1t05 - They Love Each Other
d1t06 - Big River ->
d1t07 - El Paso
d1t08 - Brown Eyed Women
d1t09 - Let It Grow

Set 2:
d1t10 - Tuning
d1t11 - Samson And Delilah
d2t01 - Sunrise
d2t02 - Terrapin Station ->
d2t03 - Playing In The Band ->
d2t04 - Drums ->
d2t05 - Space ->
d2t06 - Saint Stephen ->
d2t07 - Not Fade Away ->
d2t08 - Playing In The Band

Encore:
d2t09 - Passenger


SHNTOOL OUTPUT:
   length     expanded size    cdr  WAVE problems  fmt   ratio  filename
    2:01.850      70185710 B   cxx   --   ---xx   flac  0.6706  gd78-01-11d1t01.flac
    7:31.007     259780130 B   cxx   --   ---xx   flac  0.6968  gd78-01-11d1t02.flac
    5:22.013     185479436 B   cxx   --   ---xx   flac  0.7004  gd78-01-11d1t03.flac
   10:01.534     346483622 B   cxx   --   ---xx   flac  0.6946  gd78-01-11d1t04.flac
    9:37.060     332386466 B   cxx   --   ---xx   flac  0.6952  gd78-01-11d1t05.flac
    5:57.800     206092844 B   cxx   --   ---xx   flac  0.7101  gd78-01-11d1t06.flac
    5:47.942     200414756 B   cxx   --   ---xx   flac  0.6968  gd78-01-11d1t07.flac
    8:09.590     282003974 B   cxx   --   ---xx   flac  0.6912  gd78-01-11d1t08.flac
   12:22.365     427602038 B   cxx   --   ---xx   flac  0.7047  gd78-01-11d1t09.flac
    1:46.070      61096610 B   cxx   --   ---xx   flac  0.6666  gd78-01-11d1t10.flac
   10:01.228     346307540 B   cxx   --   ---xx   flac  0.7014  gd78-01-11d1t11.flac
    7:01.475     242769716 B   cxx   --   ---xx   flac  0.6873  gd78-01-11d2t01.flac
   11:37.032     401490518 B   cxx   --   ---xx   flac  0.6959  gd78-01-11d2t02.flac
   15:27.092     534005282 B   cxx   --   ---xx   flac  0.7093  gd78-01-11d2t03.flac
    1:46.901      61575296 B   cxx   --   ---xx   flac  0.7047  gd78-01-11d2t04.flac
    3:29.375     120600074 B   cxx   --   ---xx   flac  0.6969  gd78-01-11d2t05.flac
    9:50.567     340166900 B   cxx   --   ---xx   flac  0.7067  gd78-01-11d2t06.flac
   12:41.188     438444542 B   cxx   --   ---xx   flac  0.6941  gd78-01-11d2t07.flac
    7:15.579     250893524 B   cxx   --   ---xx   flac  0.6896  gd78-01-11d2t08.flac
    5:04.379     175322582 B   cxx   --   ---xx   flac  0.7100  gd78-01-11d2t09.flac
  152:52.050    5283101560 B                            0.6985  (20 files)


ffp
gd78-01-11d1t01.flac:514cee16cb05813114d1d27b503adfe4
gd78-01-11d1t02.flac:8428306d8a4e7aa5df6bad140f0c96d4
gd78-01-11d1t03.flac:b2b498c3700bce554c749e3ae7312d38
gd78-01-11d1t04.flac:41605fefb866774b29ec2ac0149b9344
gd78-01-11d1t05.flac:7976bb5fd9d8db411087125e30756bbe
gd78-01-11d1t06.flac:3bef240ae37984254a32ebedb2218599
gd78-01-11d1t07.flac:cc2531cad49ecb453fddab2a3e96525a
gd78-01-11d1t08.flac:4be967d8982bcded7d1a0ad42d3e8bf5
gd78-01-11d1t09.flac:195de8af360d3d81b46ad92520e2ea3d
gd78-01-11d1t10.flac:8c84dc9ed977d2bad87edb7c62279324
gd78-01-11d1t11.flac:50d7b12b2b6f4d7bf5baea5f587b03b8
gd78-01-11d2t01.flac:a105583e94a10f2ec33be31136ba421d
gd78-01-11d2t02.flac:bb20d862169eb2c7e0f4b0d22dce9128
gd78-01-11d2t03.flac:e8c4347392ff53eda56214d494f9a13a
gd78-01-11d2t04.flac:d3780cfe8c783151321fed2259047a47
gd78-01-11d2t05.flac:3442fd4970d3c3256651811bbb108c8e
gd78-01-11d2t06.flac:3ff1b015f493270307778c54c37ad92f
gd78-01-11d2t07.flac:aa89a6f6b676fdc222bdf522d477bf10
gd78-01-11d2t08.flac:7b3a4c11f2e43c2c6c513df97416799d
gd78-01-11d2t09.flac:d6181be3fadc437d886652dd9ce85b28
50d2f07eba8476bd3c8ec91a2c06fd1a *gd78-01-11d1t01.flac
27c86ec5469b07841d1f49efab464b86 *gd78-01-11d1t02.flac
18b07dd125e15b0d778331505c3e14a8 *gd78-01-11d1t03.flac
84d25a0f531fbdb03a172501db128bb6 *gd78-01-11d1t04.flac
322b5af7fff3aff4d2e1f6fc1d3b803a *gd78-01-11d1t05.flac
fb926b83db5a4e1bb0e5d5aeff004a01 *gd78-01-11d1t06.flac
5245c66d96dc25afa50a125898d07006 *gd78-01-11d1t07.flac
a252a6e74a27c8b380f59d5b31758915 *gd78-01-11d1t08.flac
88334f502aa5b5d7f0405fb178927137 *gd78-01-11d1t09.flac
3ab2f9bda1b368c0ea4175a6c1dd29e1 *gd78-01-11d1t10.flac
f302fd7db6da8f98523532fd7eff68bd *gd78-01-11d1t11.flac
48916306a71ad8a930245071de057d17 *gd78-01-11d2t01.flac
3a3a4daf993924214f0e08647d915153 *gd78-01-11d2t02.flac
aaaec6f09cd8fc23577e6df31e896485 *gd78-01-11d2t03.flac
cf868e209e1a0359ea686f30b7fdd04f *gd78-01-11d2t04.flac
b6a6e8df47ea442d572d8c58eb1a17fe *gd78-01-11d2t05.flac
9064d4cdd7a36d2ee8c3eef3ca7a515c *gd78-01-11d2t06.flac
9abd45cb56cf7aed4c12a879542db1d5 *gd78-01-11d2t07.flac
6bab664cceab8b376c281ac52d8723a9 *gd78-01-11d2t08.flac
0124b50edaf875a74b8807020c111a3f *gd78-01-11d2t09.flac

Comments
etreedb.org
For administrative requests email contact@etreedb.org
This website written by Tom H Anderson and maintained by the etreedb.org community.

Cached: Tue, 24 Nov 2020 01:33:56 EST