Grateful Dead 01/13/78
Arlington Theater, Santa Barbara, CA
Source # 135500
Entered by Matt Vernon
Checksums ffp , flac-md5
Disc Counts 0 / 0
Media Size Compressed: 1.01 GB (1080704236 bytes)
Uncompressed: 1.72 GB (1851542364 bytes)
Date Circulated
Date Added
04/12/2016
04/12/2016
Source Summary
flac16; Recording Info: SBD -> Cassette Master -> AIFF (24bit/88.2k); Transfer Info: AIFF -> Samplitude Professional v11.2.1 -> FLAC/16; All Mastering By Charlie Miller
Grateful Dead - January 13, 1978
Arlington Theater - Santa Barbara, CA

Recording Info:
SBD -> Cassette Master -> AIFF (24bit/88.2k)

Transfer Info:
AIFF -> Samplitude Professional v11.2.1 -> FLAC/16
(3 Discs Audio / 1 DVD FLAC)

All Mastering By Charlie Miller
charliemiller87@earthlink.net
April 10, 2016

Notes:
-- Disc change is seamless

Patch Info:
AKG D224E -> Cassette Master (shnid=105208 supplies:
Brown Eyed Women (3:30 - 5:22)
Space (3:53 - 5:17)
Sugar Magnolia (8:19 - end of track)

Set 1:
d1t01 - Tuning
d1t02 - Mississippi Half-Step Uptown Toodeloo
d1t03 - Mexicali Blues ->
d1t04 - Big River
d1t05 - Candyman
d1t06 - It's All Over Now
d1t07 - Brown Eyed Women
d1t08 - Beat It On Down The Line
d1t09 - Friend Of The Devil
d1t10 - Lazy Lightning ->
d1t11 - Supplication

Set 2:
d2t01 - Bertha ->
d2t02 - Good Lovin'
d2t03 - Sunrise
d2t04 - Dancing In The Street ->
d2t05 - Drums ->
d2t06 - Jam ->
d3t01 - Wharf Rat ->
d3t02 - Truckin' ->
d3t03 - Around And Around

Encore:
d3t04 - Sugar Magnolia


SHNTOOL OUTPUT:
   length     expanded size    cdr  WAVE problems  fmt   ratio  filename
    1:02.65       11089724 B   ---   --   ---xx   flac  0.4965  gd78-01-13d1t01.flac
   11:01.72      116769788 B   ---   --   ---xx   flac  0.5766  gd78-01-13d1t02.flac
    3:36.52       38224748 B   ---   --   ---xx   flac  0.5950  gd78-01-13d1t03.flac
    8:19.31       88096556 B   ---   --   ---xx   flac  0.5803  gd78-01-13d1t04.flac
    9:46.26      103431596 B   ---   --   ---xx   flac  0.5596  gd78-01-13d1t05.flac
    9:21.07       98976908 B   ---   --   ---xx   flac  0.5991  gd78-01-13d1t06.flac
    7:13.35       76463564 B   ---   --   ---xx   flac  0.5481  gd78-01-13d1t07.flac
    5:56.42       62897228 B   ---   --   ---xx   flac  0.5767  gd78-01-13d1t08.flac
   12:39.22      133939388 B   ---   --   ---xx   flac  0.5357  gd78-01-13d1t09.flac
    3:32.31       37469756 B   ---   --   ---xx   flac  0.5980  gd78-01-13d1t10.flac
    6:36.38       69943820 B   ---   --   ---xx   flac  0.6011  gd78-01-13d1t11.flac
    7:04.70       74958284 B   ---   --   ---xx   flac  0.6038  gd78-01-13d2t01.flac
    8:30.14       89996972 B   ---   --   ---xx   flac  0.5865  gd78-01-13d2t02.flac
    7:21.20       77839484 B   ---   --   ---xx   flac  0.5515  gd78-01-13d2t03.flac
   16:11.60      171425564 B   ---   --   ---xx   flac  0.6025  gd78-01-13d2t04.flac
    3:40.45       38913884 B   ---   --   ---xx   flac  0.5954  gd78-01-13d2t05.flac
   13:16.61      140557916 B   ---   --   ---xx   flac  0.5847  gd78-01-13d2t06.flac
   12:07.39      128334572 B   ---   --   ---xx   flac  0.5840  gd78-01-13d3t01.flac
    8:53.59       94160012 B   ---   --   ---xx   flac  0.6175  gd78-01-13d3t02.flac
    9:11.60       97337564 B   ---   --   ---xx   flac  0.6014  gd78-01-13d3t03.flac
    9:30.71      100715036 B   ---   --   ---xx   flac  0.6079  gd78-01-13d3t04.flac
  174:56.20     1851542364 B                            0.5837  (21 files)



ffp
gd78-01-13d1t01.flac:c8e72bedd5f2fd6a52c4fbe0049c967e
gd78-01-13d1t02.flac:346b4bcbd80098c5452e4fd6e0f5ee77
gd78-01-13d1t03.flac:091d96d194a2da8f94050be917b96124
gd78-01-13d1t04.flac:1b7d86a9728a127f183f54d536dd0fd9
gd78-01-13d1t05.flac:ef0e6d065e746aa917fe91d2680506de
gd78-01-13d1t06.flac:6538f90e2406600c7f28ae426ff9419e
gd78-01-13d1t07.flac:a24ff4d67f896ae84cf2546530155dec
gd78-01-13d1t08.flac:9a919db85259629db184b9670eb94005
gd78-01-13d1t09.flac:b353aa2c30751a87d89d55f849170063
gd78-01-13d1t10.flac:8f537946c2301b5d3b743ea8eb9403c5
gd78-01-13d1t11.flac:f186b07a3470d200c16da2fbccaf8047
gd78-01-13d2t01.flac:43dd2d2273b01a74b621177ce1daf1e6
gd78-01-13d2t02.flac:f5c50336a568538a6fde4ecb39648459
gd78-01-13d2t03.flac:71345cf5e0788f9fa7b17f4cde2dbca8
gd78-01-13d2t04.flac:a7673ee7b88492b4efd44b2aa9ac1648
gd78-01-13d2t05.flac:f113bc5af037fb5006322aa61d823d46
gd78-01-13d2t06.flac:639f516d1865934d5b9ce111a9c64b23
gd78-01-13d3t01.flac:39e7143124b21f540bf46fe913302c10
gd78-01-13d3t02.flac:5e073b58fbc45c7e9aa3c114a0f6b8fa
gd78-01-13d3t03.flac:f8dbef58ecf4d97d0acc8af184b2cfd9
gd78-01-13d3t04.flac:4488c1708b9bcd168f6b18ecac588e86
93f08ebf4f29c8f427b34da0a79e90a2 *gd78-01-13d1t01.flac
336a7ab828c4a904783dc4e7008ff3dd *gd78-01-13d1t02.flac
ed3c397f184ede89649bdae8b35ba0f7 *gd78-01-13d1t03.flac
b72490bde5a4380fa96af4106df3b69a *gd78-01-13d1t04.flac
0cab0b76e117b022203f01340a2bf9ec *gd78-01-13d1t05.flac
81322c1ddb62f0405bcbf15ab7b9dc4b *gd78-01-13d1t06.flac
38db29d3ded8edc4321611197f682b09 *gd78-01-13d1t07.flac
d7362576ecf141f79d1888a7f4cfb76f *gd78-01-13d1t08.flac
5a2ee22a08ab3bf8d347459406231276 *gd78-01-13d1t09.flac
b038e5b1d6e4d09ea0982ffa22209fbb *gd78-01-13d1t10.flac
263b041f54d522bf612453d5f9847a41 *gd78-01-13d1t11.flac
5fbede88d28a0a50e4736b2ca6977513 *gd78-01-13d2t01.flac
7414766359a631a51299f35dfd37881d *gd78-01-13d2t02.flac
99c42519fde489c8481b75d4b729e839 *gd78-01-13d2t03.flac
c7a859ccccd4077321a496cf478ddca7 *gd78-01-13d2t04.flac
af103b19b101ec60c47d9aaed78ced0a *gd78-01-13d2t05.flac
a807912099fabf1bb8dda3e7c760fb8e *gd78-01-13d2t06.flac
31b7a0e3fcd09499b5284fa9f20f7eff *gd78-01-13d3t01.flac
ab66eef60256b672936b32528262ba7b *gd78-01-13d3t02.flac
41754db8e8d5758720c91eb788a1fc0a *gd78-01-13d3t03.flac
94e60e54a0eb1ae2dfa1a7c4d4e63c6b *gd78-01-13d3t04.flac

Comments
etreedb.org
For administrative requests email contact@etreedb.org
This website written by Tom H Anderson and maintained by the etreedb.org community.

Cached: Tue, 17 Sep 2019 09:22:14 EDT