Grateful Dead 01/13/78
Arlington Theater, Santa Barbara, CA
Source # 135501
Entered by Matt Vernon
Checksums ffp , flac-md5
Disc Counts 0 / 0
Media Size Compressed: 3.6 GB (3868501761 bytes)
Uncompressed: 5.17 GB (5556536562 bytes)
Date Circulated
Date Added
04/12/2016
04/12/2016
Source Summary
flac24; Recording Info: SBD -> Cassette Master -> AIFF (24bit/88.2k); Transfer Info: AIFF -> Samplitude Professional v11.2.1 -> FLAC/24; All Mastering By Charlie Miller
Grateful Dead - January 13, 1978
Arlington Theater - Santa Barbara, CA

Recording Info:
SBD -> Cassette Master -> AIFF (24bit/88.2k)

Transfer Info:
AIFF -> Samplitude Professional v11.2.1 -> FLAC/24
(1 DVD FLAC)

All Mastering By Charlie Miller
charliemiller87@earthlink.net
April 10, 2016

Notes:
-- Disc change is seamless

Patch Info:
AKG D224E -> Cassette Master (shnid=105208 supplies:
Brown Eyed Women (3:30 - 5:22)
Space (3:53 - 5:17)
Sugar Magnolia (8:19 - end of track)

Set 1:
d1t01 - Tuning
d1t02 - Mississippi Half-Step Uptown Toodeloo
d1t03 - Mexicali Blues ->
d1t04 - Big River
d1t05 - Candyman
d1t06 - It's All Over Now
d1t07 - Brown Eyed Women
d1t08 - Beat It On Down The Line
d1t09 - Friend Of The Devil
d1t10 - Lazy Lightning ->
d1t11 - Supplication

Set 2:
d2t01 - Bertha ->
d2t02 - Good Lovin'
d2t03 - Sunrise
d2t04 - Dancing In The Street ->
d2t05 - Drums ->
d2t06 - Jam ->
d3t01 - Wharf Rat ->
d3t02 - Truckin' ->
d3t03 - Around And Around

Encore:
d3t04 - Sugar Magnolia


SHNTOOL OUTPUT:
   length     expanded size    cdr  WAVE problems  fmt   ratio  filename
    1:02.973      33325532 B   cxx   --   ---xx   flac  0.6692  gd78-01-13d1t01.flac
   11:02.205     350439014 B   cxx   --   ---xx   flac  0.6964  gd78-01-13d1t02.flac
    3:36.824     114743426 B   cxx   --   ---xx   flac  0.7044  gd78-01-13d1t03.flac
    8:19.541     264357314 B   cxx   --   ---xx   flac  0.6992  gd78-01-13d1t04.flac
    9:46.577     310416356 B   cxx   --   ---xx   flac  0.6907  gd78-01-13d1t05.flac
    9:21.227     297001538 B   cxx   --   ---xx   flac  0.7001  gd78-01-13d1t06.flac
    7:13.654     229489526 B   cxx   --   ---xx   flac  0.6569  gd78-01-13d1t07.flac
    5:56.703     188767280 B   cxx   --   ---xx   flac  0.6953  gd78-01-13d1t08.flac
   12:39.408     401878616 B   cxx   --   ---xx   flac  0.6812  gd78-01-13d1t09.flac
    3:32.618     112517438 B   cxx   --   ---xx   flac  0.6996  gd78-01-13d1t10.flac
    6:36.683     209924924 B   cxx   --   ---xx   flac  0.7002  gd78-01-13d1t11.flac
    7:05.122     224974802 B   cxx   --   ---xx   flac  0.7019  gd78-01-13d2t01.flac
    8:30.373     270089318 B   cxx   --   ---xx   flac  0.6980  gd78-01-13d2t02.flac
    7:21.459     233620208 B   cxx   --   ---xx   flac  0.6921  gd78-01-13d2t03.flac
   16:12.024     514394996 B   cxx   --   ---xx   flac  0.7089  gd78-01-13d2t04.flac
    3:40.694     116791076 B   cxx   --   ---xx   flac  0.7066  gd78-01-13d2t05.flac
   13:17.069     421808780 B   cxx   --   ---xx   flac  0.6904  gd78-01-13d2t06.flac
   12:07.695     385096010 B   cxx   --   ---xx   flac  0.7002  gd78-01-13d3t01.flac
    8:53.917     282549182 B   cxx   --   ---xx   flac  0.7113  gd78-01-13d3t02.flac
    9:11.954     292094252 B   cxx   --   ---xx   flac  0.7064  gd78-01-13d3t03.flac
    9:31.158     302256974 B   cxx   --   ---xx   flac  0.6920  gd78-01-13d3t04.flac
  174:59.878    5556536562 B                            0.6962  (21 files)


ffp
gd78-01-13d1t01.flac:53ae7208f9f692959eb5b2846e070904
gd78-01-13d1t02.flac:4f87c20e4873af6390b98308850a0253
gd78-01-13d1t03.flac:15ff5de6f63451a98e039409af2f6c72
gd78-01-13d1t04.flac:a198e4a0192a54b6d20dc860bfc19fb3
gd78-01-13d1t05.flac:8a32abaa773053c431082814f27da9e3
gd78-01-13d1t06.flac:86474109e0000ea829fd787b4cae1688
gd78-01-13d1t07.flac:79ef6a13acbb97c367c8956cdc52db11
gd78-01-13d1t08.flac:491d3cdff1fe3c48a8336688be376b5e
gd78-01-13d1t09.flac:4c900903f2837843b99f903d6d942069
gd78-01-13d1t10.flac:56eca508fcc8a0ad3ca0c75054f57971
gd78-01-13d1t11.flac:8181605f49263b6d282ca4a4b6f44762
gd78-01-13d2t01.flac:fbb0dba568146ae5347eae7be9d8c618
gd78-01-13d2t02.flac:5c0ccb76589c4f51049618c2aad17ccf
gd78-01-13d2t03.flac:401a3ccb5c12a7974b33ee20aab24517
gd78-01-13d2t04.flac:17a4eba47341f0f633d9a96557275297
gd78-01-13d2t05.flac:eb2f9fc3d8393b4cc393595e2ed3d7c3
gd78-01-13d2t06.flac:ea2a520836dfed50fff303d29cd126aa
gd78-01-13d3t01.flac:1d7f79d72a8ef4a42a6f6f7d73455415
gd78-01-13d3t02.flac:1df0ad06223c6a7b9c6e1321fdc0cf8e
gd78-01-13d3t03.flac:3e975fddbefd803895058ee33cf92f8a
gd78-01-13d3t04.flac:8ca95e4b5a572e037f39b108f1cee888
044701441135560e9d03ac297cf1dfcb *gd78-01-13d1t01.flac
049e0db94fb6b89629aae93b7e2ec442 *gd78-01-13d1t02.flac
4d40dab5f0dfa749e402893ffb17518c *gd78-01-13d1t03.flac
f8971f612e763ea247a79f650af682e9 *gd78-01-13d1t04.flac
d1c743446c5b9993e6d0f088e23b9227 *gd78-01-13d1t05.flac
2eaf99abdcb7de2dd17a835fc8734d3d *gd78-01-13d1t06.flac
ac00fab5b05bdfd60bc4c3e92fb3c883 *gd78-01-13d1t07.flac
b99fc7db5f899440e54e6f88be803a63 *gd78-01-13d1t08.flac
252f834487d9dae99da49c8f759ff1b8 *gd78-01-13d1t09.flac
b7d6b05193454094a5a61fdd70ad40dc *gd78-01-13d1t10.flac
843d1b6c011b74f5b15d91dc77a16ba3 *gd78-01-13d1t11.flac
5583fcdc044d9818f5a86bbf60f83255 *gd78-01-13d2t01.flac
d312eaeef7b6cfc1facc73e9a70d4d12 *gd78-01-13d2t02.flac
061a719bd21b2bdd26dc99c6ddf44b12 *gd78-01-13d2t03.flac
7d3b6163662f86e80f8072d680ef225b *gd78-01-13d2t04.flac
55bdfbed4e7704612ffd3626127e778d *gd78-01-13d2t05.flac
2be5224a81252e6566f4f6c875e650d8 *gd78-01-13d2t06.flac
f5efe4a60c147af7f44d311bbb91600e *gd78-01-13d3t01.flac
298a4715967aa01b7c6a2bfdef9a5dfc *gd78-01-13d3t02.flac
d75f333faac560c2a4c3298cf5889244 *gd78-01-13d3t03.flac
be14f25676feca1f352933638dba2a56 *gd78-01-13d3t04.flac

Comments
etreedb.org
For administrative requests email contact@etreedb.org
This website written by Tom H Anderson and maintained by the etreedb.org community.

Cached: Wed, 18 Sep 2019 12:33:47 EDT