Grateful Dead 10/17/78
Winterland Arena, San Francisco, CA
Source Summary
flac16; 2 source matrix by Dusborne;Soundboard (Shnid:89257), Recording Info: SBD -> Master Reel -> Reel -> Dat (44.1k)Transfer Info:Dat (Sony R500) -> Sound Devices 744T -> Samplitude Professional v9.12 -> FLAC,All Transfers and Mastering By Charlie Miller;Audience (shnid:100692),Analog Audience Source: AUD Master Cassettes, Analog Lineage: 2 x AKG D224e => Sony TC-158 >> MAC; Analog Sound Preservation: MAC >> Nakamichi CR-7a => Korg MR-1000 DSF >> Korg MR-1000 => Korg AudioGate >> WAV [24/96]Taped By: Reinhart Holwein,Transfer By: Bob Menke, Mastering By: Derek McCabe
Grateful Dead
October 17, 1978
Winterland Arena
San Francisco, CA

2 Source Matrix

Soundboard (Shnid:89257)
---------------------------------------------------------------------------------------------------
gd78-10-17.sbd.miller.sbeok.89257.flac16

Recording Info:
SBD -> Master Reel -> Reel -> Dat (44.1k)

Transfer Info:
Dat (Sony R500) -> Sound Devices 744T -> Samplitude Professional v9.12 -> FLAC
(2 Discs Audio / 2 Discs FLAC)

All Transfers and Mastering By Charlie Miller
charliemiller87@earthlink.net
December 27, 2007

Patch Info:
Unknown Mics -> Cassette Master -> Reel -> Reel -> MiniMe ->
CD supplies:
Eyes Of The World (8:59 - 11:00)
U.S. Blues (4:44 - end of song)

Notes:
-- Disc change is seamless
-- Many flaws cleaned up
-- Dat was labled SBD -> Master Reel -> PCM -> Dat which is wrong
-- Patch material supplied by Pat Lee and transferred by Matt Smith

Audience (shnid:100692)
-------------------------------------------------------------------------------
gd1978-10-17.100692.fob.akgd224e.holwein.motb-0092.flac24

MOTB Release: 00xx 24/96
Release Date: 08-15-09
Band: Grateful Dead
Date: 1978-10-17 (Tuesday)
Venue: Winterland
Location: San Francisco, CA
Analog Audience Source: AUD Master Cassettes (MAC)
Medium Stock Brands: MAC = 3 x Maxell UDXLII C90
Analog Lineage: 2 x AKG D224e => Sony TC-158 >> MAC
Analog Sound Preservation: MAC >> Nakamichi CR-7a => Korg MR-1000 DSF >> Korg MR-1000 => Korg AudioGate >> WAV [24/96]
Taped By: Reinhart Holwein
Transfer By: Bob Menke
Mastering By: Derek McCabe
---------------------------------------------------------------------------------------------------
---Thank you Charlie Miller for your work on the SBD.
---Thank you Reinhart Holwein for recording the show.
---Thank you Bob Menke for the AUD transfer.
---Thank you Derek McCabe for your work on the AUD.
---Thank you XJ32 for the art work.
---Thank you Germain for your advice, encouragement, guidance and seeding.

Matrix by dusborne
04-14-2016
-------------------------------------------------------------------------------------------------------

Set 1

101 - gd78-10-17s1t01 - Tuning
102 - gd78-10-17s1t02 - The Promised Land
103 - gd78-10-17s1t03 - Friend of the Devil
104 - gd78-10-17s1t04 - Mama Tried ->
105 - gd78-10-17s1t05 - Mexicali Blues
106 - gd78-10-17s1t06 - Tennessee Jed
107 - gd78-10-17s1t07 - I Need a Miracle
108 - gd78-10-17s1t08 - Stagger Lee
109 - gd78-10-17s1t09 - Jack Straw

Set 2

201 - gd78-10-17s2t01 - Tuning
202 - gd78-10-17s2t02 - Scarlet Begonias ->
203 - gd78-10-17s2t03 - Fire on the Mountain
204 - gd78-10-17s2t04 - Estimated Prophet ->
205 - gd78-10-17s2t05 - Eyes of the World ->
206 - gd78-10-17s2t06 - Drums ->
207 - gd78-10-17s2t07 - Space ->
208 - gd78-10-17s2t08 - If I Had the World to Give ->
209 - gd78-10-17s2t09 - Around & Around

Encore
210 - gd78-10-17s2t10 - U.S. Blues
---------------------------------------------------------------------------------------------

Tagging notes:
Show information is embedded within the header of each flac file.
It will display on any player capable of directly playing flac
files. If converted to wav during processing, all tags will be
stripped, however audio data will remain unaffected.
If you must transcode to a lossy format, do so directly Flac > Lossy.
Use ffp to validate audio integrity.
Md5 values will change if tagging is altered.
Dave Usborne 04-14-2016
---------------------------------------------------------------------------------------------
length     expanded size    cdr  WAVE problems  fmt   ratio  filename
     1:55.25       20344844 B   ---   --   ---xx   flac  0.5502  gd78-10-17s1t01.flac
     6:34.41       69598076 B   ---   --   ---xx   flac  0.6262  gd78-10-17s1t02.flac
    10:32.25      111543644 B   ---   --   ---xx   flac  0.6096  gd78-10-17s1t03.flac
     2:32.10       26836364 B   ---   --   ---xx   flac  0.6674  gd78-10-17s1t04.flac
     4:06.26       43455596 B   ---   --   ---xx   flac  0.6474  gd78-10-17s1t05.flac
     9:02.28       95674700 B   ---   --   ---xx   flac  0.6397  gd78-10-17s1t06.flac
     7:02.31       74513756 B   ---   --   ---xx   flac  0.6615  gd78-10-17s1t07.flac
     9:05.50       96255644 B   ---   --   ---xx   flac  0.6015  gd78-10-17s1t08.flac
     6:38.50       70324844 B   ---   --   ---xx   flac  0.6512  gd78-10-17s1t09.flac
     1:43.03       18176300 B   ---   --   ---xx   flac  0.5041  gd78-10-17s2t01.flac
     9:34.31      101326556 B   ---   --   ---xx   flac  0.6599  gd78-10-17s2t02.flac
    14:52.19      157393532 B   ---   --   ---xx   flac  0.5964  gd78-10-17s2t03.flac
    11:45.51      124481996 B   ---   --   ---xx   flac  0.6383  gd78-10-17s2t04.flac
    15:35.29      165002252 B   ---   --   ---xx   flac  0.6436  gd78-10-17s2t05.flac
    11:36.46      122882636 B   ---   --   ---xx   flac  0.6470  gd78-10-17s2t06.flac
     9:01.41       95528876 B   ---   --   ---xx   flac  0.5592  gd78-10-17s2t07.flac
     7:08.30       75569804 B   ---   --   ---xx   flac  0.6654  gd78-10-17s2t08.flac
    11:37.72      123120188 B   ---   --   ---xx   flac  0.6354  gd78-10-17s2t09.flac
     5:55.62       62767868 B   ---   --   ---xx   flac  0.6695  gd78-10-17s2t10.flac
   156:20.70     1654797476 B                            0.6297  (19 files)


f3b6c61e78aa141280aab7b381bd7b44 *gd78-10-17s1t01.flac
bebab748d116c04262ca18b95528bdee *gd78-10-17s1t02.flac
d7e1b2fa68ae990295dd9f9f60a7c652 *gd78-10-17s1t03.flac
74cbd0d126401d47b53681c7a2d8620f *gd78-10-17s1t04.flac
6980e0bb53d35972a9f3ec7e4dbada92 *gd78-10-17s1t05.flac
18d3092af85a2d08d5e60e893db8bda9 *gd78-10-17s1t06.flac
ea6109355f0dad360126a0d2af029caa *gd78-10-17s1t07.flac
f8bb7c7747c7cddc79c16b2c24fd22f7 *gd78-10-17s1t08.flac
e7f548feba45770a3cd473fb47f62bd4 *gd78-10-17s1t09.flac
c85fee7b840826e4447be67f8581a423 *gd78-10-17s2t01.flac
cce616e8554edf0bb52b3fcc7f459a9d *gd78-10-17s2t02.flac
7a91d95cc2507a8ff9ef0f4ed027bf13 *gd78-10-17s2t03.flac
1fbf98fa2f9c73445a9747d2d521e368 *gd78-10-17s2t04.flac
dc67f1be27b47c7fa752cd4d21760d7e *gd78-10-17s2t05.flac
363737e89bf6c43ccef536adfce33e7c *gd78-10-17s2t06.flac
b1760ef46a8e21b570d7fa501c5eb4ab *gd78-10-17s2t07.flac
3b2a2659f29a5fddb06fae6def470029 *gd78-10-17s2t08.flac
f00b49dc70eeafa65c9ed5070a9b7fe2 *gd78-10-17s2t09.flac
e1e6d321272830183747e90ea2b6bfb5 *gd78-10-17s2t10.flac
ffp
gd78-10-17s1t01.flac:7535a0d113d1814a30a1401fc85e5ff5
gd78-10-17s1t02.flac:097b36a154b8002fa4b73cc52435a260
gd78-10-17s1t03.flac:896243c3f8b973f7319a79686479592d
gd78-10-17s1t04.flac:1db311b71ba99e89eff23c7922f230e9
gd78-10-17s1t05.flac:2a8c9e1ed3b6f0f28d8530dcc22fbe9a
gd78-10-17s1t06.flac:ee963295cff4d0c6d3facb7113f3375e
gd78-10-17s1t07.flac:7c033277fbb71da3fcabe6af62a3c348
gd78-10-17s1t08.flac:f141fe5ac411a04510bacdb733fb68e8
gd78-10-17s1t09.flac:a78eb27920e1bedebde89129cfab3ea8
gd78-10-17s2t01.flac:1e841599409d0fbd00bf276b6ccb0450
gd78-10-17s2t02.flac:42e924e4ae32e40d48c515fb4b518ff8
gd78-10-17s2t03.flac:2fbcdd03ff17bb051b8e3ccf1a57e457
gd78-10-17s2t04.flac:5f4db1276df3c6366cf4e6e953a509a5
gd78-10-17s2t05.flac:83eea091a9207918cdc3a4c8d10d0f53
gd78-10-17s2t06.flac:e36909fd398761bd1a3b895ab64b6aba
gd78-10-17s2t07.flac:4cf342b2e0012df267b806a4ca5b3a39
gd78-10-17s2t08.flac:3a5f90fab134879800c050c7ef6883da
gd78-10-17s2t09.flac:ce734e0f06b1fbbb09fee10107b0b9c2
gd78-10-17s2t10.flac:1b780c0238bb1979ce0553adb9f2203b

Comments
etreedb.org
For administrative requests email contact@etreedb.org
This website written by Tom H Anderson and maintained by the etreedb.org community.

Cached: Wed, 18 Sep 2019 12:34:15 EDT