Grateful Dead 10/18/78
Winterland Arena, San Francisco, CA
Source Summary
flac16; 2 source matrix by Dusborne;Soundboard (Shnid:89335)Recording Info: SBD -> Master Reel -> PCM -> Dat (44.1k) Transfer Info:Dat (Sony R500) -> Sound Devices 744T -> Samplitude Professional v10.01 -> FLAC,All Transfers and Mastering By Charlie Miller;Audience (shnid:100701)Analog Audience Source: AUD Master Cassettes (MAC)Analog Lineage: 2 x AKG D224e => Sony TC-158 >> MAC; Analog Sound Preservation: MAC >> Nakamichi CR-7a => Korg MR-1000 DSF >> Korg AudioGate >> WAV [24/96],Taped By: Reinhart Holwein,Transfer By: Bob Menke Mastering By: Adam Egert
Grateful Dead
October 18, 1978
Winterland Arena
San Francisco, CA

2 Source Matrix

Soundboard (Shnid:89335)
---------------------------------------------------------------------------------------------------
gd78-10-18.sbd.miller.89335.sbeok.flac16

Recording Info:
SBD -> Master Reel -> PCM -> Dat (44.1k)

Transfer Info:
Dat (Sony R500) -> Sound Devices 744T -> Samplitude Professional v10.01 -> FLAC
(3 Discs Audio / 2 Discs FLAC)

All Transfers and Mastering By Charlie Miller
charliemiller87@earthlink.net
January 2, 2008

Patch Info:
Unknown Mics -> Cassette Master -> Reel -> Reel -> MiniMe -> CD supplies:
Sugaree (0:00 - 1:02)
Wharf Rat (9:01 - 9:25)

Notes:
-- Set 2 is seamless
-- Many flaws cleaned up
-- Drums/Space with Lee Oskar on harmonica
-- This source does not have cuts in PITB and I Need A Miracle
-- Patch material supplied by Pat Lee and transferred by Matt Smith
-- Patch was recorded by Reinhart Holwein on a Sony TC-158 cassette deck

Audience (shnid:100701)
-------------------------------------------------------------------------------
gd1978-10-18.fob.akgd224e.holwein.motb-0093.100701.flac24

MOTB Release: 0093 24/96
Release Date: 08-15-09
Band: Grateful Dead
Date: 1978-10-18 (Wednesday)
Venue: Winterland
Location: San Francisco, CA
Analog Audience Source: AUD Master Cassettes (MAC)
Medium Stock Brands: MAC = 3 x Maxell UDXLII C90
Analog Lineage: 2 x AKG D224e => Sony TC-158 >> MAC
Analog Sound Preservation: MAC >> Nakamichi CR-7a => Korg MR-1000 DSF >> Korg AudioGate >> WAV [24/96]
Taped By: Reinhart Holwein
Transfer By: Bob Menke
Mastering By: Adam Egert

Notes: Patch In Wharf Rat from gd78-10-18.sbd.miller.89335.sbeok.flac16.
There is some mechanical mic noise or rubbing in the right channel mid second set starting in and most noticable during Terrapin. It has been addressed as best as can be expected.
--------------------------------------------------------------------------------------------------------
---Thank you Charlie Miller for your work on the SBD.
---Thank you Reinhart Holwein for recording the show.
---Thank you Bob Menke for the AUD transfer.
---Thank you Adam Egert for your work on the AUD.
---Thank you XJ32 for the art work.
---Thank you Germain for your advice, encouragement, guidance and seeding.

Matrix by dusborne
04-14-2016
-------------------------------------------------------------------------------------------------------

Set 1

101 - gd78-10-18s1t01 - Sugaree
102 - gd78-10-18s1t02 - Me & My Uncle ->
103 - gd78-10-18s1t03 - Big River
104 - gd78-10-18s1t04 - Peggy-O
105 - gd78-10-18s1t05 - Looks Like Rain
106 - gd78-10-18s1t06 - Stagger Lee
107 - gd78-10-18s1t07 - New Minglewood Blues
108 - gd78-10-18s1t08 - Candyman
109 - gd78-10-18s1t09 - The Music Never Stopped

Set 2

201 - gd78-10-18s2t01 - Tuning
202 - gd78-10-18s2t02 - Bertha ->
203 - gd78-10-18s2t03 - Good Lovin'
204 - gd78-10-18s2t04 - From the Heart of Me
205 - gd78-10-18s2t05 - Ship of Fools
206 - gd78-10-18s2t06 - Samson & Delilah
207 - gd78-10-18s2t07 - Terrapin Station ->
208 - gd78-10-18s2t08 - Playing in the Band ->
209 - gd78-10-18s2t09 - Drums ->
210 - gd78-10-18s2t10 - Space ->*
211 - gd78-10-18s2t11 - Mind Left Body Jam ->*
212 - gd78-10-18s2t12 - Wharf Rat ->
213 - gd78-10-18s2t13 - Truckin'

Encore
214 - gd78-10-18s2t14 - I Need a Miracle

**with Lee Oskar on harmonica
---------------------------------------------------------------------------------------------------------
Tagging notes:
Show information is embedded within the header
of each flac file. It will display on any player
capable of directly playing flac files.
If converted to wav during processing, all tags
will be stripped, however audio data will remain
unaffected. If you must transcode to a lossy format,
do so directly Flac > Lossy.
Use ffp to validate audio integrity.
Md5 values will change if tagging is altered.

Dave Usborne 04-14-2016
---------------------------------------------------------------------------------------------------
length     expanded size    cdr  WAVE problems  fmt   ratio  filename
    16:09.72      171100988 B   ---   --   ---xx   flac  0.5412  gd78-10-18s1t01.flac
     3:06.51       32930396 B   ---   --   ---xx   flac  0.5993  gd78-10-18s1t02.flac
     6:26.14       68123372 B   ---   --   ---xx   flac  0.5731  gd78-10-18s1t03.flac
     9:35.18      101472380 B   ---   --   ---xx   flac  0.5072  gd78-10-18s1t04.flac
     9:24.45       99595484 B   ---   --   ---xx   flac  0.5299  gd78-10-18s1t05.flac
     8:38.72       91544588 B   ---   --   ---xx   flac  0.5336  gd78-10-18s1t06.flac
     8:08.36       86167916 B   ---   --   ---xx   flac  0.5356  gd78-10-18s1t07.flac
     8:29.39       89879372 B   ---   --   ---xx   flac  0.5033  gd78-10-18s1t08.flac
     8:12.47       86899388 B   ---   --   ---xx   flac  0.6032  gd78-10-18s1t09.flac
     1:05.41       11562476 B   ---   --   ---xx   flac  0.3983  gd78-10-18s2t01.flac
     7:06.64       75296972 B   ---   --   ---xx   flac  0.5858  gd78-10-18s2t02.flac
     8:37.04       91208252 B   ---   --   ---xx   flac  0.5635  gd78-10-18s2t03.flac
     4:37.36       48947516 B   ---   --   ---xx   flac  0.5235  gd78-10-18s2t04.flac
     7:26.40       78768524 B   ---   --   ---xx   flac  0.5229  gd78-10-18s2t05.flac
     8:52.55       93974204 B   ---   --   ---xx   flac  0.5938  gd78-10-18s2t06.flac
    12:46.67      135280028 B   ---   --   ---xx   flac  0.5233  gd78-10-18s2t07.flac
    11:14.29      118961852 B   ---   --   ---xx   flac  0.4820  gd78-10-18s2t08.flac
     4:02.63       42837020 B   ---   --   ---xx   flac  0.5211  gd78-10-18s2t09.flac
     8:09.29       86327852 B   ---   --   ---xx   flac  0.4856  gd78-10-18s2t10.flac
     3:48.40       40313324 B   ---   --   ---xx   flac  0.5563  gd78-10-18s2t11.flac
    11:02.37      116863868 B   ---   --   ---xx   flac  0.5304  gd78-10-18s2t12.flac
    12:49.38      135741020 B   ---   --   ---xx   flac  0.5826  gd78-10-18s2t13.flac
     5:53.20       62316284 B   ---   --   ---xx   flac  0.5265  gd78-10-18s2t14.flac
   185:45.57     1966113076 B                            0.5390  (23 files)


ffp
gd78-10-18s1t01.flac:7ae11aba64963ed4c068223ff2ecf218
gd78-10-18s1t02.flac:07f7b2512f8f9ce4ddd0fe784b9139a5
gd78-10-18s1t03.flac:896b3ae411e01f33e1f65e4e3cae4818
gd78-10-18s1t04.flac:7e519f85c8ed2c79bfcd6d9bf9b0329c
gd78-10-18s1t05.flac:000699183fd51ede0fb9653a3e8e027b
gd78-10-18s1t06.flac:c5612b4a7be0c8762257fca82a70aacd
gd78-10-18s1t07.flac:3cd1440359f07d4cac8a2526802ae4f4
gd78-10-18s1t08.flac:354248ba37bf11b356727b980e794773
gd78-10-18s1t09.flac:802ad3318b9acbded69cf08bf8f41371
gd78-10-18s2t01.flac:296eb30561e34fa223b60c7e1dead311
gd78-10-18s2t02.flac:5734aebcb4214eddc86da483e1de5aba
gd78-10-18s2t03.flac:bcd72f3ad0794402f32e9ee60034fb8a
gd78-10-18s2t04.flac:8c22142ac428748f7f404a145822b0fa
gd78-10-18s2t05.flac:f2ffe7600896ec321dcce46d4843c5d7
gd78-10-18s2t06.flac:fc51ba46fc301c2cb96bda5b814d8958
gd78-10-18s2t07.flac:dc199231308d585c95b3b545f30f6514
gd78-10-18s2t08.flac:0cc498fa77785cc13f4c2311fa506b72
gd78-10-18s2t09.flac:b58b17e459d87750253f0acf8fc163cd
gd78-10-18s2t10.flac:c735c83a6200ea4cace28cd1cb825a52
gd78-10-18s2t11.flac:329ae60d8dbdd079efa2172a60cee660
gd78-10-18s2t12.flac:ec113ee52264b3be16070141c251130a
gd78-10-18s2t13.flac:92ce44f78d55aa928aa00db94cc3f603
gd78-10-18s2t14.flac:b8b3f5cee78a8c802015589134ece31c
a787f43fcdbb72d7b42e2d318fcde8ed *gd78-10-18s1t01.flac
41a900baefe711d90e519fb6129a592d *gd78-10-18s1t02.flac
c9b6c907f2473b53dadad4884f91822f *gd78-10-18s1t03.flac
69a8cdcd102d0cdf0e04fd90e48dec1f *gd78-10-18s1t04.flac
49c318b14db233c069e8d03edc5e62ef *gd78-10-18s1t05.flac
f1ac7ffbe6052919f917c1aaa7a9761d *gd78-10-18s1t06.flac
01191147a4d570a9e7926066dceca9ba *gd78-10-18s1t07.flac
56453af0b5146439a6c313fdf730a843 *gd78-10-18s1t08.flac
4e1c6cc004453614a2337736a1d064f5 *gd78-10-18s1t09.flac
aeb832a50961cacfd20edee568dc099d *gd78-10-18s2t01.flac
d18e8d95f53ecacd3f152ea280888ec6 *gd78-10-18s2t02.flac
4226d601c8ce772bdddcbbb601e9cf4f *gd78-10-18s2t03.flac
d4815eaf0839ce87a10f900ac3eb4644 *gd78-10-18s2t04.flac
d0cd2940edd1b68f2b99a2efebf6a8e3 *gd78-10-18s2t05.flac
3ef392b8775561023463f4aca7fa1ac3 *gd78-10-18s2t06.flac
6ffe26cfae3677a660d3b007716d7e94 *gd78-10-18s2t07.flac
198c59515233d1b949651823edaaaf6c *gd78-10-18s2t08.flac
b10187a435687d390425fb91fdb5b4a2 *gd78-10-18s2t09.flac
d310efb74cef227b7b6726f70d18a600 *gd78-10-18s2t10.flac
e88982dfa5792acdba48b14ec201e3b2 *gd78-10-18s2t11.flac
e8023a1337c2de1b83a4078c8d5d6c0f *gd78-10-18s2t12.flac
d6edb3e5127cc4ba8cd31cc2e27765f7 *gd78-10-18s2t13.flac
3ba8c9b4df453464fa31e9f00d0cecbc *gd78-10-18s2t14.flac

Comments
etreedb.org
For administrative requests email contact@etreedb.org
This website written by Tom H Anderson and maintained by the etreedb.org community.

Cached: Sun, 20 Oct 2019 01:37:16 EDT