Grateful Dead 10/20/78
Winterland Arena, San Francisco, CA
Source Summary
flac16; 2 source matrix by Dusborne;Soundboard (Shnid:92542)Recording Info: SBD -> Cassette Master (Maxell UDXL-I) -> PCM (Analog Out) -> Sony R500 (A>D Only) -> Peak -> AIFFTransfer Info:AIFF -> Samplitude Professional v10.1 -> FLAC, All Transfers and Mastering By Charlie Miller; Audience(shnid:100700) Analog Audience Source: AUD Master Cassettes,Analog Lineage: 2 x AKG D224e => Sony TC-158 >> MAC,Analog Sound Preservation: MAC >> Nakamichi CR-7a => Korg MR-1000 DSF >> Korg MR-1000 => Korg AudioGate >> WAV [24/96] Taped By: Reinhart Holwein,Transfer By: Bob Menke,Mastering By: Derek McCabe
Grateful Dead
October 20, 1978
Winterland Arena
San Francisco, CA

2 Source Matrix

Soundboard (Shnid:92542)
---------------------------------------------------------------------------------------------------
gd78-10-20.sbd.miller.92542.sbeok.flac16

Recording Info:
SBD -> Cassette Master (Maxell UDXL-I) -> PCM (Analog Out) ->
Sony R500 (A>D Only) -> Peak -> AIFF

Transfer Info:
AIFF -> Samplitude Professional v10.1 -> FLAC
(3 Discs Audio / 2 Discs FLAC)

All Transfers and Mastering By Charlie Miller
charliemiller87@earthlink.net
July 1, 2008

Patch Info:
AKG D224E -> Cassette Master -> Reel -> Reel -> MiniMe -> CD supplies:
Drums (1:59 - 4:21)

Notes:
-- Set 2 is seamless
-- Patch material supplied by Pat Lee and transferred by Matt Smith
-- Patch was recorded by Reinhart Holwein on a Sony TC-158 cassette deck

Audience (shnid:100700)
------------------------------------------------------------------------------
gd1978-10-20.fob.akgd224e.holwein.motb.100700.flac24

MOTB Release: 0021 24/96

Release Date: 08-15-09

Band: Grateful Dead

Date: 1978-10-20 (Saturday)

Venue: Winterland
Location: San Francisco, CA

Analog Audience Source: AUD Master Cassettes (MAC)

Medium Stock Brands: MAC = 3 x Maxell UDXLII C90

Analog Lineage: 2 x AKG D224e => Sony TC-158 >> MAC

Analog Sound Preservation: MAC >> Nakamichi CR-7a => Korg MR-1000 DSF >> Korg MR-1000 => Korg AudioGate >> WAV [24/96]

Taped By: Reinhart Holwein

Transfer By: Bob Menke

Mastering By: Derek McCabe
---------------------------------------------------------------------------------------------------
---Thank you Charlie Miller for your work on the SBD.
---Thank you Reinhart Holwein for recording the show.
---Thank you Bob Menke for the AUD transfer.
---Thank you Derek McCabe for your work on the AUD.
---Thank you XJ32 for the art work.
---Thank you Germain for your advice, encouragement, guidance and seeding.

Matrix by dusborne
04-14-2016
------------------------------------------------------------------------------------------------------
Set 1

101 - gd78-10-20s1t01 - Tuning
102 - gd78-10-20s1t02 - New Minglewood Blues
103 - gd78-10-20s1t03 - They Love Each Other
104 - gd78-10-20s1t04 - Cassidy
105 - gd78-10-20s1t05 - Dire Wolf
106 - gd78-10-20s1t06 - El Paso
107 - gd78-10-20s1t07 - Tennessee Jed
108 - gd78-10-20s1t08 - It's All Over Now
109 - gd78-10-20s1t09 - Loser
110 - gd78-10-20s1t10 - Lazy Lightnin' ->
111 - gd78-10-20s1t11 - Supplication

Set 2

201 - gd78-10-20s2t01 - Tuning
202 - gd78-10-20s2t02 - Mississippi Half-Step Uptown Toodeloo ->
203 - gd78-10-20s2t03 - Franklin's Tower
204 - gd78-10-20s2t04 - Dancing in the Street ->
205 - gd78-10-20s2t05 - Drums ->
206 - gd78-10-20s2t06 - Space ->
207 - gd78-10-20s2t07 - Not Fade Away ->
208 - gd78-10-20s2t08 - Black Peter ->
209 - gd78-10-20s2t09 - Around & Around

Encore
210 - gd78-10-20s2t10 - Johnny B. Goode
211 - gd78-10-20s2t11 - Shakedown Street
--------------------------------------------------------------------------------------------------------
Tagging notes:
Show information is embedded within the header of each flac file.
It will display on any player capable of directly playing flac files.
If converted to wav during processing, all tags will be stripped,
however audio data will remain unaffected.
If you must transcode to a lossy format, do so directly Flac > Lossy.
Use ffp to validate audio integrity.
Md5 values will change if tagging is altered.
Dave Usborne 04-14-2016
--------------------------------------------------------------------------------------------------------
length     expanded size    cdr  WAVE problems  fmt   ratio  filename
     0:51.30        9067004 B   ---   --   ---xx   flac  0.4834  gd78-10-20s1t01.flac
     5:32.35       58647164 B   ---   --   ---xx   flac  0.6178  gd78-10-20s1t02.flac
     8:16.49       87609692 B   ---   --   ---xx   flac  0.5853  gd78-10-20s1t03.flac
     6:24.13       67768220 B   ---   --   ---xx   flac  0.6046  gd78-10-20s1t04.flac
     5:21.21       56673836 B   ---   --   ---xx   flac  0.5694  gd78-10-20s1t05.flac
     5:16.50       55860044 B   ---   --   ---xx   flac  0.5737  gd78-10-20s1t06.flac
     9:07.25       96549644 B   ---   --   ---xx   flac  0.6032  gd78-10-20s1t07.flac
     8:09.36       86344316 B   ---   --   ---xx   flac  0.5855  gd78-10-20s1t08.flac
     9:03.43       95886380 B   ---   --   ---xx   flac  0.5567  gd78-10-20s1t09.flac
     3:31.29       37288652 B   ---   --   ---xx   flac  0.6099  gd78-10-20s1t10.flac
     4:49.07       50996108 B   ---   --   ---xx   flac  0.6168  gd78-10-20s1t11.flac
     2:13.48       23574140 B   ---   --   ---xx   flac  0.4210  gd78-10-20s2t01.flac
     9:04.00       95961644 B   ---   --   ---xx   flac  0.5803  gd78-10-20s2t02.flac
    13:33.51      143533196 B   ---   --   ---xx   flac  0.5626  gd78-10-20s2t03.flac
    19:45.20      209081084 B   ---   --   ---xx   flac  0.5956  gd78-10-20s2t04.flac
     9:24.41       99586076 B   ---   --   ---xx   flac  0.5387  gd78-10-20s2t05.flac
     5:21.65       56777324 B   ---   --   ---xx   flac  0.4726  gd78-10-20s2t06.flac
     7:26.37       78761468 B   ---   --   ---xx   flac  0.6058  gd78-10-20s2t07.flac
    10:36.43      112291580 B   ---   --   ---xx   flac  0.5827  gd78-10-20s2t08.flac
    11:01.65      116753324 B   ---   --   ---xx   flac  0.6031  gd78-10-20s2t09.flac
     5:31.27       58451948 B   ---   --   ---xx   flac  0.5623  gd78-10-20s2t10.flac
     7:36.19       80483132 B   ---   --   ---xx   flac  0.5472  gd78-10-20s2t11.flac
   167:59.04     1777945976 B                            0.5767  (22 files)


ffp
gd78-10-20s1t01.flac:41a9c7ed24969027f7ef320c013293ae
gd78-10-20s1t02.flac:63fd4eff8f1cc8c3d654d1c5941898f1
gd78-10-20s1t03.flac:731bb7c9a50382fa3a74c6f48371cc56
gd78-10-20s1t04.flac:70afa0f8b1bf5309bed202919a740e93
gd78-10-20s1t05.flac:2a27e6123f1b346a71a476a896305f6a
gd78-10-20s1t06.flac:afac1185869516385f009abf705094e9
gd78-10-20s1t07.flac:8c0648e36347865d40f5fd701e5aa94c
gd78-10-20s1t08.flac:a4f83c2f88881d6bf25ba5dde49e8a45
gd78-10-20s1t09.flac:e27252f495a0a2e91059f584087ca51e
gd78-10-20s1t10.flac:730e1c14d419d744cfe5272b649d670b
gd78-10-20s1t11.flac:8a388bde42e0cafc801543002d794d4e
gd78-10-20s2t01.flac:1c9c1c1ea87cfb54bb53ea4b22996a38
gd78-10-20s2t02.flac:374568a272faa90ec4846363e46d3bd8
gd78-10-20s2t03.flac:1b947fe151634b053ddc6e2359ed9a13
gd78-10-20s2t04.flac:6f028ea2fe79531323ede389ca93b2f2
gd78-10-20s2t05.flac:572ff867a4b81c727c08298b77910f2e
gd78-10-20s2t06.flac:47d685326e0d409034208a145d812344
gd78-10-20s2t07.flac:10cbb5097256c3a5322d40874f5f0e20
gd78-10-20s2t08.flac:6197a06a22f3afb951e2de342745390a
gd78-10-20s2t09.flac:1f0f980ec75d4f9865a5a06d8d4b5785
gd78-10-20s2t10.flac:4d2af953e37c2ea82f6cb7c2876e4ace
gd78-10-20s2t11.flac:abdea355f42c4e410006e9e8b288f925
df9e4b6855fecc5ebd09fe0a55b68eb1 *gd78-10-20s1t01.flac
da0279d5ae45d230f3ec2b6037e06d25 *gd78-10-20s1t02.flac
d432a70a02a3a1b74624716978a1be39 *gd78-10-20s1t03.flac
82c2af29b9ca86c35362d6f48e05b3de *gd78-10-20s1t04.flac
20b5af9235edf89bb0f64d991f3f5ac1 *gd78-10-20s1t05.flac
8638259d77c36cad07bd845d2a290a13 *gd78-10-20s1t06.flac
53d2f6b32a979c7a4aa2a4655513e06c *gd78-10-20s1t07.flac
0ef2d30b32d59ba654f72cc9310765d0 *gd78-10-20s1t08.flac
170e1b622f71a6b852cb01028db89e6d *gd78-10-20s1t09.flac
70719ddc73fbc740abf592d115d346e6 *gd78-10-20s1t10.flac
53ac119587c88b37fd81d3dd1c957b1b *gd78-10-20s1t11.flac
75a2ca0f247abbf3181bc0b6f0284c97 *gd78-10-20s2t01.flac
923e73a347054fc21f5c638b1399e28a *gd78-10-20s2t02.flac
d415c751196323e47c88f500e41f5ebf *gd78-10-20s2t03.flac
dcea055208afa412758684b62fb34150 *gd78-10-20s2t04.flac
48fcc2f55d0d3580e942c2ed163b34b8 *gd78-10-20s2t05.flac
b071ddbb129916a0726deb209fc0cb5c *gd78-10-20s2t06.flac
63293690a0a9e9ba1d75ee50bd77e696 *gd78-10-20s2t07.flac
fd677b3ab4545aca45b756ead385ddce *gd78-10-20s2t08.flac
6c996918d8ef00dc54c2d11e34f9cea1 *gd78-10-20s2t09.flac
d3cfd4dd0697baa787d36cc8da5d8c9e *gd78-10-20s2t10.flac
27da724b192f8640095944d1ebc67c40 *gd78-10-20s2t11.flac

Comments
etreedb.org
For administrative requests email contact@etreedb.org
This website written by Tom H Anderson and maintained by the etreedb.org community.

Cached: Tue, 17 Sep 2019 13:21:31 EDT