Grateful Dead 01/14/78
Bakersfield Memorial Auditorium, Bakersfield, CA
Source Summary
flac24; Recording Info: SBD -> Cassette Master -> AIFF (24bit/96k); Transfer Info: AIFF -> Samplitude Professional v11.2.1 -> FLAC/24; All Mastering By Charlie Miller
Grateful Dead - January 14, 1978
Civic Auditorium - Bakersfield, CA

Recording Info:
SBD -> Cassette Master -> AIFF (24bit/96k)

Transfer Info:
AIFF -> Samplitude Professional v11.2.1 -> FLAC/24
(1 DVD FLAC)

All Mastering By Charlie Miller
charliemiller87@earthlink.net
April 17, 2016

Patch Info:
AKG D224E -> Cassette Master (shnid=105758) supplies:
Eyes Of The World (11:31 - 12:10)

Set 1:
d1t01 - Tuning
d1t02 - Jack Straw
d1t03 - Dire Wolf
d1t04 - Cassidy
d1t05 - They Love Each Other
d1t06 - Mama Tried ->
d1t07 - Me And My Uncle
d1t08 - Loser
d1t09 - Looks Like Rain
d1t10 - Deal
d1t11 - Let It Grow

Set 2:
d2t01 - Tuning
d2t02 - Samson And Delilah
d2t03 - Candyman
d2t04 - Estimated Prophet ->
d2t05 - Eyes Of The World ->
d2t06 - Space ->
d2t07 - Not Fade Away ->
d2t08 - One More Saturday Night


SHNTOOL OUTPUT:
    length     expanded size    cdr  WAVE problems  fmt   ratio  filename
     1:36.978      55859234 B   cxx   --   ---xx   flac  0.6438  gd78-01-14s1t01.flac
     8:27.418     292272614 B   cxx   --   ---xx   flac  0.6879  gd78-01-14s1t02.flac
     7:43.473     266960246 B   cxx   --   ---xx   flac  0.6936  gd78-01-14s1t03.flac
     5:29.578     189837062 B   cxx   --   ---xx   flac  0.6997  gd78-01-14s1t04.flac
     8:17.487     286552598 B   cxx   --   ---xx   flac  0.6942  gd78-01-14s1t05.flac
     2:45.151      95127086 B   cxx   --   ---xx   flac  0.7088  gd78-01-14s1t06.flac
     4:57.071     171113210 B   cxx   --   ---xx   flac  0.6967  gd78-01-14s1t07.flac
     8:56.419     308977634 B   cxx   --   ---xx   flac  0.6916  gd78-01-14s1t08.flac
     8:56.917     309264122 B   cxx   --   ---xx   flac  0.6882  gd78-01-14s1t09.flac
     7:26.205     257013920 B   cxx   --   ---xx   flac  0.6942  gd78-01-14s1t10.flac
    12:46.443     441471164 B   cxx   --   ---xx   flac  0.7027  gd78-01-14s1t11.flac
     3:07.207     107831192 B   cxx   --   ---xx   flac  0.6651  gd78-01-14s2t01.flac
    10:16.086     354865430 B   cxx   --   ---xx   flac  0.6911  gd78-01-14s2t02.flac
    10:06.552     349373828 B   cxx   --   ---xx   flac  0.6817  gd78-01-14s2t03.flac
    12:37.961     436585754 B   cxx   --   ---xx   flac  0.6997  gd78-01-14s2t04.flac
    15:03.305     520303484 B   cxx   --   ---xx   flac  0.6990  gd78-01-14s2t05.flac
     5:59.214     206907590 B   cxx   --   ---xx   flac  0.7025  gd78-01-14s2t06.flac
    15:09.715     523995968 B   cxx   --   ---xx   flac  0.6950  gd78-01-14s2t07.flac
     5:42.571     197320784 B   cxx   --   ---xx   flac  0.7021  gd78-01-14s2t08.flac
   155:25.750    5371632920 B                            0.6940  (19 files)


ffp
gd78-01-14s1t01.flac:ceaa793e93cb470ab04a8ef3c84b916f
gd78-01-14s1t02.flac:308a7e4125602d32b5b1ae474d810060
gd78-01-14s1t03.flac:336caba710560d21fe32b10d34f69495
gd78-01-14s1t04.flac:61a865d285ea27a571d7bb7c6d63ff7b
gd78-01-14s1t05.flac:6a365fa8db5522c03908e3c839f2a5d3
gd78-01-14s1t06.flac:eaace17aaefb3c4de196a89cc6ed12f6
gd78-01-14s1t07.flac:320d9908bb7753c0e3379720eacca943
gd78-01-14s1t08.flac:cd3ac2ccfba6928a11d39732bb903b7c
gd78-01-14s1t09.flac:9d953cb4c2bda7e0d2a1ddf6cbd60b1c
gd78-01-14s1t10.flac:576ced8dca7a4a2f6dea6b09c3db5a1e
gd78-01-14s1t11.flac:9f689c7a5b0227e9eca454a564145aee
gd78-01-14s2t01.flac:0768b7747314217d2f18420910787cc3
gd78-01-14s2t02.flac:1f8e14536dce4e8b254682ad78a3dddf
gd78-01-14s2t03.flac:c0682cde854713c80510f895dfd5b5fe
gd78-01-14s2t04.flac:25880640757e168d34bd1bf88e1ee8af
gd78-01-14s2t05.flac:66e44430e781fd623dc37622ad8fdd68
gd78-01-14s2t06.flac:7c7c08133d1d52c5af2ee621675afcd9
gd78-01-14s2t07.flac:b0620edc6fe25af18c36aeba4252b684
gd78-01-14s2t08.flac:f9c446698744602ace398a98cf5e09e1
39d9d200dbcdd7dd313dfcde5f228fd1 *gd78-01-14s1t01.flac
577236ddc60c089f31a6491f952b1d51 *gd78-01-14s1t02.flac
f5427e10ff254c9e66479e5941a6b36b *gd78-01-14s1t03.flac
0708bc60c78167ddbe32649f514cc6be *gd78-01-14s1t04.flac
f578503a54aed946ea67a5b26b792dde *gd78-01-14s1t05.flac
5889b20654dcc914cfff399c73394b8b *gd78-01-14s1t06.flac
c1f51ee5e37e8784835b1aaa6ce0babc *gd78-01-14s1t07.flac
9a221bcddb1e2d02f1b6949b624b5087 *gd78-01-14s1t08.flac
4b1bf0aadb42ab3e71d8563c8c166da4 *gd78-01-14s1t09.flac
678bc675415c12f3ce7661e7c493f694 *gd78-01-14s1t10.flac
89f8cc1b2f126d91a38a22f4e198a87a *gd78-01-14s1t11.flac
2ff460850d7ee23d46480fb58ea4aab2 *gd78-01-14s2t01.flac
3507d7939922f172801887ddeeea74b5 *gd78-01-14s2t02.flac
4fc2c41c8a1911749adf4070460cfcea *gd78-01-14s2t03.flac
78f0182290e7e574411b086ab2121c0a *gd78-01-14s2t04.flac
f223df0bda982acdd8484a1135fd6357 *gd78-01-14s2t05.flac
3f5775222f5d302ed24118be40291df7 *gd78-01-14s2t06.flac
645c9384440b56a5f00479b1b91fa23d *gd78-01-14s2t07.flac
d68931e9e8852db856dde18329f8b3d9 *gd78-01-14s2t08.flac

Comments
etreedb.org
For administrative requests email contact@etreedb.org
This website written by Tom H Anderson and maintained by the etreedb.org community.

Cached: Sat, 14 Dec 2019 07:54:34 EST