Grateful Dead 11/17/78
Uptown Theater, Chicago, IL
Source # 135718
Entered by Matt Vernon
Checksums flac-md5 , ffp
Disc Counts 0 / 0
Media Size Compressed: 163.7 MB (171650869 bytes)
Uncompressed: 260.41 MB (273062672 bytes)
Date Circulated
Date Added
05/13/2016
05/13/2016
Source Summary
flac16; Partial Source: SBD > ? > Cassette, from the Brian Schley tape collection; Transfer: Maxell XLII > Nakamichi CR-5A > Edirol FA-66 > Wavelab 2448 > R8Brain > CD-Wave > TLH > FLAC 1644 tagged. Transferred by Andrew F.
GRATEFUL DEAD
Uptown Theater
Chicago IL
11-17-1978
Partial SBD

t01 Cassidy
t02 Bertha (cut)
t03 Ship of Fools
t04 Estimated Prophet (cut)

Source: SBD > ? > Cassette, from the Brian Schley tape collection.

Transfer: Maxell XLII > Nakamichi CR-5A > Edirol FA-66 > Wavelab
2448 > > R8Brain > CD-Wave > TLH > FLAC 1644 tagged. Transferred
by Andrew F. 05/2016

Note: Brian's 11/16/78 partial SBD tape contained the same songs
as ID-11486; these fragments were filler found on each tape side.
Thanks Jon Pasternak & Charlie McGuth for organizing this project!

    length     expanded size    cdr  WAVE problems  fmt   ratio  filename
     5:02.54       53399852 B   ---   --   ---xx   flac  0.6304  gd1978-11-17t01.flac
     3:52.63       41073020 B   ---   --   ---xx   flac  0.6295  gd1978-11-17t02.flac
     7:51.41       83180876 B   ---   --   ---xx   flac  0.6210  gd1978-11-17t03.flac
     9:00.65       95408924 B   ---   --   ---xx   flac  0.6339  gd1978-11-17t04.flac
    25:47.73      273062672 B                            0.6286  (4 files)

1f9f429bab4b5311a0f6ea9723d1db41 *gd1978-11-17t01.flac
8d8ccc3d011814fb8fcc13cd6f9759ef *gd1978-11-17t02.flac
09363408dfe14cc8e515d342f4a2124e *gd1978-11-17t03.flac
14294815431479cbc0d13602b46f7d75 *gd1978-11-17t04.flac
ffp
gd1978-11-17t01.flac:12a28de7661036491471a8aaa77abf28
gd1978-11-17t02.flac:e89e6c76def32541659ed5081e25c86f
gd1978-11-17t03.flac:e856845d6a439e2e1a1eeba52bfc1a82
gd1978-11-17t04.flac:12db4b57e041b19b23b25f15249ec40b

Comments
Other Sources (comments)
2nd set plus Shakedown... (3)
Date User Comment
etreedb.org
For administrative requests email contact@etreedb.org
This website written by Tom H Anderson and maintained by the etreedb.org community.

Cached: Wed, 18 Sep 2019 12:39:08 EDT