John Kadlecik 11/10/16
Barrymore Theatre, Madison, WI
Source # 137227
Entered by ziko
Checksums md5 , ffp
Disc Counts 0 / 0
Media Size Compressed: 693 MB (726663168 bytes)
Date Circulated
Date Added
11/11/2016
11/11/2016
Download Text | Download Zip
Other Sources
Source Summary
flac16; Soundboard > Zoom H2 @ 24/48 Lineage: SDHC card > Audacity for tracking and fades > flac level 8 and checksums with traderslittlehelper > tagged with mp3tag Recording and all else by arfarf
John Kadlecik Band
Thursday, November 10, 2016
Barrymore Theatre,
Madison WI

Recording: Soundboard > Zoom H2 @ 24/48
Lineage: SDHC card > Audacity for tracking and fades >
flac level 8 and checksums with traderslittlehelper > tagged with mp3tag

Recording and all else by arfarf.


01 -tuning-
02 Shakedown Street ->
03 And It Stoned me
04 What's Become Of Mary
05 Golden Wings
06 Way To Go Home ->
07 Lazy River Road
08 Sugaree
09 Ripple
10 Good Shepherd
11 Sister Smiles
12 Giving Me The Business
13 Join Together ->
14 Walking In Your Footsteps ->
15 Join Together
16 I'll Take A Melody
17 Everybody's Trying
--Encore--
18 -Encore break and band intros-
19 US Blues
20 My Sisters And Brothers

John Kadlecik: Guitar & Vocals
Klyph Black: Bass & Vocals
Nathan Graham: Drums
Scott Guberman: Keys & Vocals

Notes: Co-billed with Mr. Blotto who opened.
For thus burning to CD, I suggest starting disc 2 with track 10.

    length     expanded size    cdr  WAVE problems  fmt   ratio  filename
     1:32.44       16332332 B   ---   --   ---xx   flac  0.3709  jkb2016-11-10t01.flac
    12:48.50      135592844 B   ---   --   ---xx   flac  0.5682  jkb2016-11-10t02.flac
     6:53.40       72947324 B   ---   --   ---xx   flac  0.4934  jkb2016-11-10t03.flac
     6:14.34       66053612 B   ---   --   ---xx   flac  0.5198  jkb2016-11-10t04.flac
     5:50.15       61775324 B   ---   --   ---xx   flac  0.5099  jkb2016-11-10t05.flac
     7:25.35       78580364 B   ---   --   ---xx   flac  0.5406  jkb2016-11-10t06.flac
     7:05.12       74998268 B   ---   --   ---xx   flac  0.5193  jkb2016-11-10t07.flac
    10:45.35      113860364 B   ---   --   ---xx   flac  0.5353  jkb2016-11-10t08.flac
     6:38.14       70240172 B   ---   --   ---xx   flac  0.5108  jkb2016-11-10t09.flac
     7:33.06       79923356 B   ---   --   ---xx   flac  0.5442  jkb2016-11-10t10.flac
     5:09.12       54535868 B   ---   --   ---xx   flac  0.5149  jkb2016-11-10t11.flac
     6:59.38       74001020 B   ---   --   ---xx   flac  0.5599  jkb2016-11-10t12.flac
     2:43.17       28793228 B   ---   --   ---xx   flac  0.5675  jkb2016-11-10t13.flac
     9:16.33       98156060 B   ---   --   ---xx   flac  0.5163  jkb2016-11-10t14.flac
     2:49.19       29856332 B   ---   --   ---xx   flac  0.5996  jkb2016-11-10t15.flac
     9:20.72       98953388 B   ---   --   ---xx   flac  0.5161  jkb2016-11-10t16.flac
     7:30.58       79516460 B   ---   --   ---xx   flac  0.5558  jkb2016-11-10t17.flac
     2:12.71       23451836 B   ---   --   ---xx   flac  0.3318  jkb2016-11-10t18.flac
     5:55.36       62706716 B   ---   --   ---xx   flac  0.5580  jkb2016-11-10t19.flac
     5:01.62       53242268 B   ---   --   ---xx   flac  0.5176  jkb2016-11-10t20.flac
   129:46.28     1373517136 B                            0.5291  (20 files)


md5
f4de00cb317b6958250dd847e9b24af7 *jkb2016-11-10t01.flac
a5206e6ba05a45397041177405df91ac *jkb2016-11-10t02.flac
b217bba0c9a856caa2e9d805ffe524e0 *jkb2016-11-10t03.flac
f96bb38f947268858d88096368309b61 *jkb2016-11-10t04.flac
0091f6e2209f4b8c61886c330f78aa47 *jkb2016-11-10t05.flac
4591092f92d5a1698415d47b523bc425 *jkb2016-11-10t06.flac
df838996d323f58a8b09ef59dafe288d *jkb2016-11-10t07.flac
d4d855fc009e00e37718feaf80458dcc *jkb2016-11-10t08.flac
44be7afcb2605b717b56fb9e5b19e13f *jkb2016-11-10t09.flac
1e93345a769cd60e06c1bc7090ec6fb3 *jkb2016-11-10t10.flac
37c6d32bd2eabf2ea5478ea7139197dd *jkb2016-11-10t11.flac
a471c21eeac6caf5a76fa89462fe6cc9 *jkb2016-11-10t12.flac
7a4eddd7118bbfc88a56dcbaf093eb03 *jkb2016-11-10t13.flac
02652fb699afb962b918b756dd2af0ee *jkb2016-11-10t14.flac
122bd68d2ecb966d0633b95c01f1297c *jkb2016-11-10t15.flac
1a3159cf464539755e845f759af807af *jkb2016-11-10t16.flac
c2c7d9881eb9627bedad5fd1cf8aa67f *jkb2016-11-10t17.flac
b773867da7e381f897ee3d497c2af283 *jkb2016-11-10t18.flac
3054d89bdbd7ae137650ca310c38f157 *jkb2016-11-10t19.flac
f59082a5a9a7ec23c4aebf80c5cd61ba *jkb2016-11-10t20.flac
ffp
jkb2016-11-10t01.flac:b88a16b19e9bcb6ed8ef7a35cfd31da3
jkb2016-11-10t02.flac:909de621be4fcec65cba6c5065188f72
jkb2016-11-10t03.flac:5514cf391dcb939f2bf9d0f4df17db21
jkb2016-11-10t04.flac:bc03b149d973bbfd2e42da2c0795905a
jkb2016-11-10t05.flac:bc60e02514c02f8d779d1bab9bc67dbb
jkb2016-11-10t06.flac:b64aedba2e98d70de3b7b579150b2be8
jkb2016-11-10t07.flac:ec127b0efb4ef2775adbca5b4c3390dd
jkb2016-11-10t08.flac:82aa16f20c2074d806d3e45ac924556b
jkb2016-11-10t09.flac:f580c5fdbbc6976324c320b018897451
jkb2016-11-10t10.flac:576e25fc422b7c9d4ba0684c3f5b26a7
jkb2016-11-10t11.flac:fd96bba1d14b72ab0a2dd70414239a17
jkb2016-11-10t12.flac:cfe5ed8606315474a39a593c05b0e8fe
jkb2016-11-10t13.flac:f24c4a422643342b0d5066ae335ee8aa
jkb2016-11-10t14.flac:0954f9d8cd13befb29774a41b4059701
jkb2016-11-10t15.flac:496e12a9b26aef11ebffa87de665f097
jkb2016-11-10t16.flac:83a8db3108c8666cb83e0fac866a7b10
jkb2016-11-10t17.flac:74200abd6032dda5ad97a685adcee4d5
jkb2016-11-10t18.flac:ba0eb37d35949a16e7abc6920b35853e
jkb2016-11-10t19.flac:9607f1d196b4f6463ae741dae32fb15a
jkb2016-11-10t20.flac:9ea83141d7fffbf608a3a3e71850bb5d

Comments
Date User Comment
etreedb.org
For administrative requests email contact@etreedb.org
This website written by Tom H Anderson and maintained by the etreedb.org community.

Cached: Mon, 20 May 2024 07:26:34 EDT