Grateful Dead 06/04/78
Campus Stadium, UC Santa Barbara, Goleta, CA
Source # 137295
Entered by Matt Vernon
Checksums flac-md5 , ffp
Disc Counts 0 / 0
Media Size Compressed: 585.57 MB (614010880 bytes)
Uncompressed: 934.91 MB (980325976 bytes)
Date Circulated
Date Added
11/27/2016
11/27/2016
Source Summary
flac16; Set One & Set Two Partial; Source: FOB AUD unknown lineage, from Brian Schley tape collection. Transfer: Maxell XLII-90 > Nakamichi CR-5A > Edirol FA-66 > Wavelab 2448 > R8Brain SRC > Wavelab (insert patches) > CD-Wave > TLH > FLAC 1644 tagged. Transferred by Andrew F. 11/2016
GRATEFUL DEAD
Campus Stadium
Santa Barbara CA
06-04-1978
Set One & Partial Set Two

s1t01 Bertha >
s1t02 Good Lovin'
s1t03 Dire Wolf
s1t04 Me & My Uncle >
s1t05 Big River
s1t06 Brown Eyed Women
s1t07 Looks Like Rain
s1t08 Tennessee Jed
s1t09 Jack Straw

s2t06 ...Drums > Space >
s2t07 Not Fade Away >
s2t08 Goin' Down the Road >
s2t09 Around & Around
s2t10 Encore 1: U.S. Blues

Source: FOB AUD unknown lineage, from Brian Schley tape collection.

Transfer: Maxell XLII-90 > Nakamichi CR-5A > Edirol FA-66 > Wavelab
2448 > R8Brain SRC > Wavelab (insert patches) > CD-Wave > TLH > FLAC
1644 tagged. Transferred by Andrew F. 11/2016

Note: Here's an old compilation tape from a wild and raucous FOB
recording. ID-87090 patches covered gaps and spots of tape damage.
Thanks Jon Pasternak & Charlie McGuth for organizing this project!

    length     expanded size    cdr  WAVE problems  fmt   ratio  filename
     7:18.53       77387900 B   ---   --   ---xx   flac  0.6335  gd1978-06-04s1t01.flac
     6:39.09       70404812 B   ---   --   ---xx   flac  0.6381  gd1978-06-04s1t02.flac
     3:35.09       37947212 B   ---   --   ---xx   flac  0.6180  gd1978-06-04s1t03.flac
     3:47.72       40212188 B   ---   --   ---xx   flac  0.6030  gd1978-06-04s1t04.flac
     6:15.39       66241772 B   ---   --   ---xx   flac  0.6194  gd1978-06-04s1t05.flac
     5:56.41       62894876 B   ---   --   ---xx   flac  0.6099  gd1978-06-04s1t06.flac
     7:55.43       83891180 B   ---   --   ---xx   flac  0.5934  gd1978-06-04s1t07.flac
     8:51.63       93816620 B   ---   --   ---xx   flac  0.6225  gd1978-06-04s1t08.flac
     5:53.08       62288060 B   ---   --   ---xx   flac  0.6534  gd1978-06-04s1t09.flac
     7:34.25       80144444 B   ---   --   ---xx   flac  0.5886  gd1978-06-04s2t06.flac
     8:24.15       88940924 B   ---   --   ---xx   flac  0.6419  gd1978-06-04s2t07.flac
     6:58.22       73786988 B   ---   --   ---xx   flac  0.6421  gd1978-06-04s2t08.flac
     7:54.14       83646572 B   ---   --   ---xx   flac  0.6496  gd1978-06-04s2t09.flac
     5:32.67       58722428 B   ---   --   ---xx   flac  0.6435  gd1978-06-04s2t10.flac
    92:37.30      980325976 B                            0.6260  (14 files)

No errors occured.



96ef1df36c4ca1171d2f639eb56c4dea *gd1978-06-04s1t01.flac
c0af6f7457c5ab37772b413a7187ed9b *gd1978-06-04s1t02.flac
5e899444f08dbd5ab34577012e69bf85 *gd1978-06-04s1t03.flac
f7a80373296a6ee9a9c766e15352ee95 *gd1978-06-04s1t04.flac
43b924dce2665496687a21855a1a9047 *gd1978-06-04s1t05.flac
1b12e470a4c9481dcfe739a72cf0f8e6 *gd1978-06-04s1t06.flac
3d285016d1f4c91215842ffc1dd6f7f6 *gd1978-06-04s1t07.flac
96f3fe1dd3a15bd1cd5c4d1719b2e9b3 *gd1978-06-04s1t08.flac
3ed80f5ddc6076350f05234d6c6732e7 *gd1978-06-04s1t09.flac
386b17b59aeef4f340083e6aa0596039 *gd1978-06-04s2t06.flac
78d69ac97ca4c8a0f89912b7a18c5a9b *gd1978-06-04s2t07.flac
e1e6fb77b2cee29f79bf5e44d44f92c0 *gd1978-06-04s2t08.flac
72ab832ae72bef804d0fb33022adf5be *gd1978-06-04s2t09.flac
b8378e8cf25a2b554c0bf399fc0361e4 *gd1978-06-04s2t10.flac
ffp
gd1978-06-04s1t01.flac:c1775a105454f53a69c1640f739f7513
gd1978-06-04s1t02.flac:69ef4ac195c9cc856c412ebb293bf652
gd1978-06-04s1t03.flac:cce7f10cf1ad5831722827371b794aaf
gd1978-06-04s1t04.flac:882083d04ee5b5acd0f6962f03de80e0
gd1978-06-04s1t05.flac:ac24e474690172df8f0e4f1d38a3ccd9
gd1978-06-04s1t06.flac:bdfd2a9e3f52fe2acc6289cfdb6df727
gd1978-06-04s1t07.flac:e23676a008a3f3cd39e53075ede102f0
gd1978-06-04s1t08.flac:cae3b98bb43cc283557cdc4bb2bfb759
gd1978-06-04s1t09.flac:abad29fb1bc8fdd8b5947049550fa457
gd1978-06-04s2t06.flac:4cab1079eb96dbafd7dad068e6c7c97c
gd1978-06-04s2t07.flac:aa47fd4c11aa476d6729b6d450de22b5
gd1978-06-04s2t08.flac:b8fdb8bb52f10b88cba0ce72879a0216
gd1978-06-04s2t09.flac:6a5c2985425784111379758f33af5502
gd1978-06-04s2t10.flac:3df7b083e32520d0f2da34be91ed9a8e

Comments
etreedb.org
For administrative requests email contact@etreedb.org
This website written by Tom H Anderson and maintained by the etreedb.org community.

Cached: Wed, 18 Sep 2019 12:34:54 EDT