Grateful Dead 04/15/78
William & Mary Hall, Williamsburg, VA
Source Summary
flac24; Set 2 Source: sbd; All Master tapes [were synced] - on a Aiwa CX-NA555 [using Maxell XLll 90 Type ll with High (CrO2 Tape OFF] NO Dolby; Tape Transfer: Sharp RT100 Deck [Master Cassette, Maxell XLII 90] > Sony PCM-M10 > Scandisc Ultra MicroSD 8gb [class 10]; Settings: Sharp RT100 Deck: Dolby NR - OFF & CrO2 - OFF; Settings: Sony PCM-M10 manual record level at 6; Recording Mode: LPCM [wav] 96.00kHz/24bit; Mastering & Editing: 96.00kHz/24bit wav > AA3 was used for +/- db gains, fade ins & outs; CD Wave Editor to Split Tracks & covert to Flac24 [Level 6]
GRATEFUL DEAD
College of William & Mary
William & Mary Hall
Williamsburg, VA.
April 15 1978  [Saturday at 8 pm]

     A Gratefully Little Deadicated Feat Recording
[Happy Jack's Masters Cassette Analog Collection #2]
*** 24 Bit Version *** 1st TIME IN CIRCULATION

Tapers: Friend & Happy Jack
All Transfering, Mastering & Editing by Happy Jack [aka; dedhed69] 12/2016

Source: sbd
Location. We were on stage left patched into the mixingboard with Left/Right rca plugs. My friend always carried a long patch chord to be away from others. Most of the time stage left

Lineage: mixingboard [Line out Left/Right] > d5 [Line In recording level 5. No Dolbly] > MASTER Cassettes [Maxell XLII90]

For The Clones
All Master tapes [were synced] - on a Aiwa CX-NA555 [using Maxell XLll 90 Type ll with High (CrO2 Tape OFF] NO Dolby was used. Unless specifically marked on tape

Tape Transfer: Sharp RT100 Deck [Master Cassette, Maxell XLII 90] > Sony PCM-M10 > Scandisc Ultra MicroSD 8gb [class 10] on 12/22/2016
Settings: Sharp RT100 Deck: Dolby NR - OFF & CrO2 - OFF
Settings: Sony PCM-M10 manual record level at 6
Recording Mode: LPCM [wav] 96.00kHz/24bit

Recording Transfer: Sony PCM-M10 [ SanDisk Ultra [MicroSDHC] 8gb (class10)] > my Laptob HD by way of USB > 96.00kHz/24bit wav

Mastering & Editing: 96.00kHz/24bit wav > AA3 was used for +/- db gains, fade ins & outs. No music was altered, Touched and/or NORMALIZED
CD Wave Editor to Split Tracks & covert to Flac24 [Level 6]

Set 2  [Only]
01. Tuning & Banter
02. Bertha > Good Lovin'
03. Candyman
04. Sunrise >
05. Playing In The Band > Jam
06. Drums @ >
07. Drums > Not Fade Away > Jam
08. Morning Dew
09. Around And Around
10. Encore
11. One More Saturday Night > Jam > One More Saturday Night  @

Show Notes
One of the BEST NOT FADE AWAY  MORNING DEW COMBOS
Some Awesome Jams

Band Memberes
Jerry Garcia - guitar & vocals
Bob Weir - guitar & vocals
Bill Kreutzmann - drums
Phil Lesh - bass
Mickey Hart - percussion
Keith Godchaux - keyboards & vocals
Donna Godchaux - backing vocals

Source Notes
@ - tape flip [about less then a minute. Transition is smoothless
@ - Tape ends. cut the song about mabey a minute or less left
By the sounds of my ears & markings on tape this is the master.
UNFORTUNTLEY I only had the 2nd set of this great show. The rest stolen.

SUPPORT THE ARTIST
http://www.dead.net/
Buy there Music. Go See Them LIVE !!

WE WERE ON TIME FOR THE PATCH WHICH IS A 1ST. LMAO !! THIS WAS A GREAT SHOW. ONE OF THE BETTER SOUNDING PATCHES BUT STILL  A NICE WARM SOUND.


Happy Jack Final Notes
*** Thanks to my friend for the great times taping from 77-90
I will go with this as being the MASTER cassette. The rest has been stolen along with many others while I was in the Hospital for Spinal Bacteria Meningitas. The  good news there r about 75 tapes still in my possesion.
added md5
added ffp
added shn tool.len text

DO NOT SELL !!!!

ENJOY/SHARE WITH FAMILY & FRIENDS [That you trust & just loves the music]

Happy Jack
Please beware of us old school tapers who may have lost the tolerance for being disrespected! After so many years how many end up asking for a show!!!
Please Be Kind

    length     expanded size    cdr  WAVE problems  fmt   ratio  filename
     1:03.787      36741164 B   cxx   --   ---xx   flac  0.5665  gd1978-04-15 Williamsburg,VA. Track01. Tuning  Banter .flac
    14:11.133     490252844 B   cxx   --   ---xx   flac  0.6121  gd1978-04-15 Williamsburg,VA. Track02. Bertha  Good Lovin.flac
    10:09.667     351168044 B   cxx   --   ---xx   flac  0.6100  gd1978-04-15 Williamsburg,VA. Track03. Candyman.flac
     3:46.640     130544684 B   cxx   --   ---xx   flac  0.6062  gd1978-04-15 Williamsburg,VA. Track04. Sunrise .flac
    14:14.613     492257324 B   cxx   --   ---xx   flac  0.6140  gd1978-04-15 Williamsburg,VA. Track05. Playing In The Band  Jam .flac
     4:21.373     100367208 B   cxx   --   ---xx   flac  0.4011  gd1978-04-15 Williamsburg,VA. Track06. Drums .flac
    13:32.920     468241964 B   cxx   --   ---xx   flac  0.6183  gd1978-04-15 Williamsburg,VA. Track07. Drums  Not Fade Away  Jam.flac
    10:43.960     370921004 B   cxx   --   ---xx   flac  0.6126  gd1978-04-15 Williamsburg,VA. Track08. Morning Dew.flac
     8:02.573     277962284 B   cxx   --   ---xx   flac  0.6225  gd1978-04-15 Williamsburg,VA. Track09. Around And Around.flac
     0:55.840      32163884 B   cxx   --   ---xx   flac  0.5887  gd1978-04-15 Williamsburg,VA. Track10. Encore.flac
     4:18.091     148660532 B   cxx   --   ---xx   flac  0.6256  gd1978-04-15 Williamsburg,VA. Track11. One More Saturday Night .flac
    85:20.597    2899280936 B                            0.6065  (11 files)



7224a92e78961e8e4d1f2ad54bdbecc0 *gd1978-04-15 Williamsburg,VA. Track01. Tuning Banter .flac
6e36b53a0233e798e23e8a37b1741148 *gd1978-04-15 Williamsburg,VA. Track02. Bertha Good Lovin.flac
86130e20aefac0ac301cd83fc4969c0c *gd1978-04-15 Williamsburg,VA. Track03. Candyman.flac
651f3b4b2f54d6d3aa27c34cbb984455 *gd1978-04-15 Williamsburg,VA. Track04. Sunrise .flac
78e7f54ce0f4467f056446f0b18f8a05 *gd1978-04-15 Williamsburg,VA. Track05. Playing In The Band Jam .flac
9c2900ed5d02409cec25fce4ae59912f *gd1978-04-15 Williamsburg,VA. Track06. Drums .flac
57eb19550d9ef655dc259d6814c5c213 *gd1978-04-15 Williamsburg,VA. Track07. Drums Not Fade Away Jam.flac
4a6b3163d7b5371f5834ed93f8bf17ab *gd1978-04-15 Williamsburg,VA. Track08. Morning Dew.flac
495457c29610dff6026972215c837e13 *gd1978-04-15 Williamsburg,VA. Track09. Around And Around.flac
c0ed6e0d64266fb1041b497eb96ce4bf *gd1978-04-15 Williamsburg,VA. Track10. Encore.flac
06f547942bf7094aca50473d9e7396ad *gd1978-04-15 Williamsburg,VA. Track11. One More Saturday Night .flac
ffp
gd1978-04-15 Williamsburg,VA. Track01. Tuning Banter .flac:d4916bc66a0f71f0b4a20d011a018b38
gd1978-04-15 Williamsburg,VA. Track02. Bertha Good Lovin.flac:d0f8e1343f5a42b21017bd3f1f7a982e
gd1978-04-15 Williamsburg,VA. Track03. Candyman.flac:a250fc439ce82a6c4472d9dd7811c38e
gd1978-04-15 Williamsburg,VA. Track04. Sunrise .flac:b76a8e1ae2b92812d1e051eae3cf40e1
gd1978-04-15 Williamsburg,VA. Track05. Playing In The Band Jam .flac:a2f394cd44bf1dfd4afa0c1b219a755c
gd1978-04-15 Williamsburg,VA. Track06. Drums .flac:36a2934010c4d0d7cb3e031d0b4c1d30
gd1978-04-15 Williamsburg,VA. Track07. Drums Not Fade Away Jam.flac:19e162d9c8242afb7d8510d5b74232d2
gd1978-04-15 Williamsburg,VA. Track08. Morning Dew.flac:92630ce719dda3d7085a625af5c0f06f
gd1978-04-15 Williamsburg,VA. Track09. Around And Around.flac:2fb907e26358724a82472681f171b264
gd1978-04-15 Williamsburg,VA. Track10. Encore.flac:4cff8e3643d84118e83953ee0789a1cf
gd1978-04-15 Williamsburg,VA. Track11. One More Saturday Night .flac:d02371e7d87bb1145a9b728ab6691602

Comments
etreedb.org
For administrative requests email contact@etreedb.org
This website written by Tom H Anderson and maintained by the etreedb.org community.

Cached: Sat, 19 Oct 2019 16:08:22 EDT