Grateful Dead 12/30/78
Pauley Pavilion, UCLA, Los Angeles, CA
Source Summary
flac16; Source: Audience recording > Neumann KM 88's > Nagra > reel master; taped by Sandy Troy; Transfer: reel master > Technics RS1506 > Apogee Mini Me > Apogee Mini Dac> wav 24/96); transferred by Matt Smith; Lineage: wav 24/96 > Adobe Audition 3.0.01 > iZotope RX4 Advanced > iZotope Ozone 5 Advanced > iZotope RX4 Advanced > wav 16/44.1 > CD Wave > TLH > Flac16; edited and mastered SIRMick
Grateful Dead
Pauley Pavilion
Los Angeles, CA
12/30/1978


Source: Audience recording > Neumann KM 88's > Nagra > reel master
        taped by Sandy Troy
Transfer: reel master > Technics RS1506 > Apogee Mini Me > Apogee Mini Dac> wav 24/96)
          transferred by Matt Smith
Lineage: wav 24/96 > Adobe Audition 3.0.01 > iZotope RX4 Advanced > iZotope Ozone 5 Advanced >
         iZotope RX4 Advanced > wav 16/44.1 > CD Wave > TLH > Flac16



Set I

01   crown/tuning
02   Jack Straw
03   They Love Each Other
04   Mama Tried >
05   Mexicali Blues
06   Loser
07   Looks Like Rain
08   Stagger Lee
09   Passenger
10   Tennessee Jed
11   New Minglewood Blues
12   Sugaree
13   The Promised Land


Set II

01   tuning
02   I Need A Miracle >
03   Bertha >
04   Good Lovin'
05   Scarlet Begonias >
06   Fire On The Mountain
07   Playing In The Band >
08   Shakedown Street >
09   Drums >
10   Ollin Arrageed * >
11   Space >
12   Saint Stephen >
13   Not Fade Away >
14   Goin' Down The Road Feeling Bad >
15   Around And Around
16   encore break

encore

17   One More Saturday Night **



Comments:

*  with Hamza el-Din - oud, vocals
** with Lee Oskar - harmonica

Notes:

- Reel change at the end of "Fire On The Mountain" patched with a recording by Rheinhart Holwein


Thanks to Sandy Troy for taping and Matt Smith for transferring this outstanding recording
and a tip of the hat to Charlie Miller for sending it to me.


edited and mastered
SIRMick
January 2017


shntool output:

    length     expanded size    cdr  WAVE problems  fmt   ratio  filename
     1:01.04       10769852 B   ---   --   ---xx   flac  0.5630  gd1978-12-30s1t01.flac
     6:38.64       70357772 B   ---   --   ---xx   flac  0.6081  gd1978-12-30s1t02.flac
     8:21.66       88531676 B   ---   --   ---xx   flac  0.5811  gd1978-12-30s1t03.flac
     2:25.21       25627436 B   ---   --   ---xx   flac  0.6250  gd1978-12-30s1t04.flac
     5:40.64       60126572 B   ---   --   ---xx   flac  0.6044  gd1978-12-30s1t05.flac
     8:33.02       90497948 B   ---   --   ---xx   flac  0.5881  gd1978-12-30s1t06.flac
     9:39.13      102166220 B   ---   --   ---xx   flac  0.5727  gd1978-12-30s1t07.flac
     7:32.58       79869260 B   ---   --   ---xx   flac  0.5907  gd1978-12-30s1t08.flac
     7:35.70       80426684 B   ---   --   ---xx   flac  0.6081  gd1978-12-30s1t09.flac
    11:27.27      121250348 B   ---   --   ---xx   flac  0.5957  gd1978-12-30s1t10.flac
     7:03.05       74629004 B   ---   --   ---xx   flac  0.6026  gd1978-12-30s1t11.flac
    10:13.12      108161468 B   ---   --   ---xx   flac  0.5946  gd1978-12-30s1t12.flac
     4:40.59       49530812 B   ---   --   ---xx   flac  0.6443  gd1978-12-30s1t13.flac
     1:41.44       17919932 B   ---   --   ---xx   flac  0.5048  gd1978-12-30s2t01.flac
     4:12.08       44471660 B   ---   --   ---xx   flac  0.6305  gd1978-12-30s2t02.flac
     6:31.64       69122972 B   ---   --   ---xx   flac  0.6319  gd1978-12-30s2t03.flac
     9:29.68      100531580 B   ---   --   ---xx   flac  0.6109  gd1978-12-30s2t04.flac
     9:39.18      102177980 B   ---   --   ---xx   flac  0.6126  gd1978-12-30s2t05.flac
    10:28.29      110847452 B   ---   --   ---xx   flac  0.6073  gd1978-12-30s2t06.flac
     7:32.43       79833980 B   ---   --   ---xx   flac  0.5914  gd1978-12-30s2t07.flac
     8:55.47       94484588 B   ---   --   ---xx   flac  0.6144  gd1978-12-30s2t08.flac
    10:44.53      113726300 B   ---   --   ---xx   flac  0.5780  gd1978-12-30s2t09.flac
    14:26.37      152849468 B   ---   --   ---xx   flac  0.5276  gd1978-12-30s2t10.flac
     1:47.18       18917180 B   ---   --   ---xx   flac  0.5367  gd1978-12-30s2t11.flac
     7:48.11       82581116 B   ---   --   ---xx   flac  0.5954  gd1978-12-30s2t12.flac
     7:13.16       76418876 B   ---   --   ---xx   flac  0.6109  gd1978-12-30s2t13.flac
     6:23.23       67615340 B   ---   --   ---xx   flac  0.6081  gd1978-12-30s2t14.flac
     9:13.61       97692716 B   ---   --   ---xx   flac  0.6280  gd1978-12-30s2t15.flac
     1:30.44       15979532 B   ---   --   ---xx   flac  0.5146  gd1978-12-30s2t16.flac
     4:41.44       49671932 B   ---   --   ---xx   flac  0.6562  gd1978-12-30s2t17.flac
   213:13.43     2256787656 B                            0.5968  (30 files)



d4bd52e90045e1f062810bcb1abba256 *gd1978-12-30s1t01.flac
a5ac2108a1df649f7aad619fa8daa368 *gd1978-12-30s1t02.flac
088d22f4bd9b3e00a76bb391b7926f40 *gd1978-12-30s1t03.flac
74365a3edb3dcee3092765631d7353d6 *gd1978-12-30s1t04.flac
a5abb3b56dc9defcda66f075f75fcd96 *gd1978-12-30s1t05.flac
1912d25bfe55014c8884a4669661b7af *gd1978-12-30s1t06.flac
55ac8d07cceb64c274c98df85b06caef *gd1978-12-30s1t07.flac
5aac20b7d9d0f6e6ba65da655cab34a9 *gd1978-12-30s1t08.flac
fe2a52514f103fd2e913a118825973ed *gd1978-12-30s1t09.flac
9244539d2e896f539520f69904a1d58a *gd1978-12-30s1t10.flac
e3e7babef7a15bf69a4156eaea5fa690 *gd1978-12-30s1t11.flac
e5d2261c39c13302e0d6bd42ed35f08a *gd1978-12-30s1t12.flac
07856c62c8505becafcba2c81a2d7ae0 *gd1978-12-30s1t13.flac
edd09111c7de21791d2da34fd74f6891 *gd1978-12-30s2t01.flac
9d65f692629f6e35de2a3610e251525b *gd1978-12-30s2t02.flac
8d5a2c60eed26ce6e09f19e3449d6397 *gd1978-12-30s2t03.flac
75d60cc0026951d0e7c0f15db2fe8805 *gd1978-12-30s2t04.flac
36f44cf976b50f3c9bfd4cf7b9e43f71 *gd1978-12-30s2t05.flac
684287e1ba31dc4e28359598b63a870d *gd1978-12-30s2t06.flac
ef556939e044a249bc74c5768e138788 *gd1978-12-30s2t07.flac
c2af6130014f33ffcaa6b23e3e984a1b *gd1978-12-30s2t08.flac
1b9b74d6b274c8504d5656496e3e831a *gd1978-12-30s2t09.flac
84b2f41e85c21a7704a0276c1b336f25 *gd1978-12-30s2t10.flac
6da31c06c973461377fd43bce222e734 *gd1978-12-30s2t11.flac
23837f91431ef6c24dff1ab2846ad30a *gd1978-12-30s2t12.flac
fa107436395a595acfe00c56b7e1fa71 *gd1978-12-30s2t13.flac
9cb20e48eed92f27e9b79e1cf46bbc09 *gd1978-12-30s2t14.flac
b6e8db0f19dc24165d0a11f23b28e4f4 *gd1978-12-30s2t15.flac
cd3c11601a3a2277f5d4e39fe616ad3f *gd1978-12-30s2t16.flac
40d907e04d7f5090cccea57d5addfc3c *gd1978-12-30s2t17.flac
ffp
gd1978-12-30s1t01.flac:d0f8dd01d8d6f2e8622dbe596f70ef66
gd1978-12-30s1t02.flac:4502144c32ea2059a99abb1941710766
gd1978-12-30s1t03.flac:c7f9263812f6663abde4b8492ef42e1d
gd1978-12-30s1t04.flac:231f6eb97fbd89ba3c70e85d3837f6a1
gd1978-12-30s1t05.flac:4c8066c15348600230484545982c3d44
gd1978-12-30s1t06.flac:1041e5874ec5174dc3528c3d733e37be
gd1978-12-30s1t07.flac:8e1f59511ab180ffc8d7945a6e249a7c
gd1978-12-30s1t08.flac:e1f47d038e8dc16033ee9e7b3b7a51ad
gd1978-12-30s1t09.flac:701fb2fce718915d7c0ccf660669fe48
gd1978-12-30s1t10.flac:c1fb1fe70ca11f0aa0fc9e3ef2a01836
gd1978-12-30s1t11.flac:f88edcb5d6e63fdafe1d0f72edb44590
gd1978-12-30s1t12.flac:42c21eeed64985ad2eb56b72bf21a038
gd1978-12-30s1t13.flac:11c8e347ea4229978c000e9298c7790f
gd1978-12-30s2t01.flac:1698c27a696e691c7b8565770078a160
gd1978-12-30s2t02.flac:ff4a85692991055e11d4df535031fda4
gd1978-12-30s2t03.flac:932d07fb3bf0015331158a2a04518b76
gd1978-12-30s2t04.flac:f417b878ddad09f6d38983d5571c9b65
gd1978-12-30s2t05.flac:4f0b2cb4dd9849c7c5c09693770b2ca7
gd1978-12-30s2t06.flac:53b62288497fc909bd173b495ede55ca
gd1978-12-30s2t07.flac:4ef2c9e1a97531255d61f5297b699cab
gd1978-12-30s2t08.flac:2e1833fef996f7a4257cfbb1df9a99bd
gd1978-12-30s2t09.flac:d73dbe8cad8cce3489b3795458035d62
gd1978-12-30s2t10.flac:2ef5d19e202fe0b08061bd5247e031a5
gd1978-12-30s2t11.flac:559fd18abf0146f4cc35854ef93dbf0d
gd1978-12-30s2t12.flac:71e345bb6f477dd0fc99d94adb1d5e3c
gd1978-12-30s2t13.flac:de40ebfd02243a383693d7e9873957c2
gd1978-12-30s2t14.flac:8185289ddb4b1b2501db1ca141b5c575
gd1978-12-30s2t15.flac:20e9372fea94d647246d2af06744b492
gd1978-12-30s2t16.flac:8ed849de9423c77a467a3ce27c360904
gd1978-12-30s2t17.flac:2a2434a5ae3a0db43ea8a4a42f574179

Comments
etreedb.org
For administrative requests email contact@etreedb.org
This website written by Tom H Anderson and maintained by the etreedb.org community.

Cached: Tue, 17 Sep 2019 13:24:30 EDT