Joe Russo's Almost Dead 02/13/16
State Theater, Portland, ME
Source # 137855
Entered by Todd
Checksums ffp
Disc Counts 0 / 0
Media Size
Date Circulated
Date Added

02/21/2017
Source Summary
flac16, 44kHz; Schoeps mk4v > nbob actives > Naiant PFA > Sonosax SX-R4; WAV > USB > Macbook Pro > Wave Editor (tracking, fades, resample (izotope)/dither (mbit+) to 16 bit/44.1k) > XAct (FLAC 8, ffp, fix sbe); Taped and Transferred by Andy Murray
Joe Russo’s Almost Dead
2016-02-13
State Theater
Portland, ME

mics were NOS, just left of center

Schoeps mk4v>nbob actives>Naiant PFAs>Sonosax SX-R4 (24bit/96khz)

WAV>USB>Macbook Pro>Wave Editor(tracking,fades,resample(izotope)/dither(mbit+)to 16 bit/44.1k)>XAct(FLAC 8,ffp,fix sbe)

Recorded and transferred by Andy Murray

Set I

01. Big River >
02. Sitting On Top of the World >
03. Viola Lee Blues >
04. Sugaree >
05. Viola Lee Blues >
06. Deal

Set II

01. Here Comes Sunshine >
02. Man Smart (Women Smarter) >
03. Franklin'92s Tower >
04. Throwing Stones >
05. Terrapin Station Suite
06. encore break
07. One More Saturday Night

Joe Russo - Drums
Marco Benevento - Keys
Scott Metzger - Guitar
Tom Hamilton - Guitar
Jon Shaw - Bass

http://www.joerussosalmostdead.com/

;flac fingerprints generated by xACT 2.37 on 2016-02-18 02:30:20 +0000

jrad2016-02-13.mk4v.sxr4.1644.s1t01.flac:6265e7637bed86e7dd1f2c2e842a9d46
jrad2016-02-13.mk4v.sxr4.1644.s1t02.flac:0e4cc8917ab3248629dda9ff9d1fbe91
jrad2016-02-13.mk4v.sxr4.1644.s1t03.flac:b09b341e50e989c3b0abae855bea8804
jrad2016-02-13.mk4v.sxr4.1644.s1t04.flac:82b7908042d5b3b76933dfdab6fa11b1
jrad2016-02-13.mk4v.sxr4.1644.s1t05.flac:636053a8a43ffda11bc472eb3d972ade
jrad2016-02-13.mk4v.sxr4.1644.s1t06.flac:7d8ec43ce7d35226349a3b1422069b0c
jrad2016-02-13.mk4v.sxr4.1644.s2t01.flac:670d6d0366b2dc1bc972f16208b105f6
jrad2016-02-13.mk4v.sxr4.1644.s2t02.flac:30a5e2d3546224783089b370215cb4a6
jrad2016-02-13.mk4v.sxr4.1644.s2t03.flac:125064a04adbd24576e0523b760a7813
jrad2016-02-13.mk4v.sxr4.1644.s2t04.flac:3eb46afdbf50b1e8a63a383cc54be946
jrad2016-02-13.mk4v.sxr4.1644.s2t05.flac:053933a156a6e92adb301b392f09959a
jrad2016-02-13.mk4v.sxr4.1644.s2t06.flac:99fbd6fbcbcd1bdc6941beddb1bc3753
jrad2016-02-13.mk4v.sxr4.1644.s2t07.flac:8e3ff254db822a489794217dc476008f

    length     expanded size    cdr  WAVE problems  fmt   ratio  filename
    11:44.19      124230332 B   ---   --   -----    wav  1.0000  jrad2016-02-13.mk4v.sxr4.1644.s1t01.wav
     9:23.35       99395564 B   ---   --   -----    wav  1.0000  jrad2016-02-13.mk4v.sxr4.1644.s1t02.wav
    12:07.22      128294588 B   ---   --   -----    wav  1.0000  jrad2016-02-13.mk4v.sxr4.1644.s1t03.wav
    18:18.48      193800140 B   ---   --   -----    wav  1.0000  jrad2016-02-13.mk4v.sxr4.1644.s1t04.wav
     1:38.61       17430716 B   ---   --   -----    wav  1.0000  jrad2016-02-13.mk4v.sxr4.1644.s1t05.wav
     9:56.60      105275564 B   ---   --   -----    wav  1.0000  jrad2016-02-13.mk4v.sxr4.1644.s1t06.wav
    18:25.24      194978492 B   ---   --   -----    wav  1.0000  jrad2016-02-13.mk4v.sxr4.1644.s2t01.wav
    11:55.25      126184844 B   ---   --   -----    wav  1.0000  jrad2016-02-13.mk4v.sxr4.1644.s2t02.wav
    10:42.61      113392316 B   ---   --   -----    wav  1.0000  jrad2016-02-13.mk4v.sxr4.1644.s2t03.wav
    17:01.03      180111500 B   ---   --   -----    wav  1.0000  jrad2016-02-13.mk4v.sxr4.1644.s2t04.wav
    32:03.46      339325436 B   ---   --   -----    wav  1.0000  jrad2016-02-13.mk4v.sxr4.1644.s2t05.wav
     4:03.06       42879356 B   ---   --   -----    wav  1.0000  jrad2016-02-13.mk4v.sxr4.1644.s2t06.wav
     8:13.60       87106364 B   ---   --   -----    wav  1.0000  jrad2016-02-13.mk4v.sxr4.1644.s2t07.wav
   165:34.20     1752405212 B                            1.0000  (13 files)

ffp
;flac fingerprints generated by xACT 2.37 on 2016-02-18 02:30:20 +0000

jrad2016-02-13.mk4v.sxr4.1644.s1t01.flac:6265e7637bed86e7dd1f2c2e842a9d46
jrad2016-02-13.mk4v.sxr4.1644.s1t02.flac:0e4cc8917ab3248629dda9ff9d1fbe91
jrad2016-02-13.mk4v.sxr4.1644.s1t03.flac:b09b341e50e989c3b0abae855bea8804
jrad2016-02-13.mk4v.sxr4.1644.s1t04.flac:82b7908042d5b3b76933dfdab6fa11b1
jrad2016-02-13.mk4v.sxr4.1644.s1t05.flac:636053a8a43ffda11bc472eb3d972ade
jrad2016-02-13.mk4v.sxr4.1644.s1t06.flac:7d8ec43ce7d35226349a3b1422069b0c
jrad2016-02-13.mk4v.sxr4.1644.s2t01.flac:670d6d0366b2dc1bc972f16208b105f6
jrad2016-02-13.mk4v.sxr4.1644.s2t02.flac:30a5e2d3546224783089b370215cb4a6
jrad2016-02-13.mk4v.sxr4.1644.s2t03.flac:125064a04adbd24576e0523b760a7813
jrad2016-02-13.mk4v.sxr4.1644.s2t04.flac:3eb46afdbf50b1e8a63a383cc54be946
jrad2016-02-13.mk4v.sxr4.1644.s2t05.flac:053933a156a6e92adb301b392f09959a
jrad2016-02-13.mk4v.sxr4.1644.s2t06.flac:99fbd6fbcbcd1bdc6941beddb1bc3753
jrad2016-02-13.mk4v.sxr4.1644.s2t07.flac:8e3ff254db822a489794217dc476008f

Comments
Other Sources (comments)
flac24, 96kHz ; Schoeps... (0)
Date User Comment
etreedb.org
For administrative requests email contact@etreedb.org
This website written by Tom H Anderson and maintained by the etreedb.org community.

Cached: Sun, 29 Nov 2020 20:03:08 EST