Grateful Dead 02/05/78
Uni Dome, University Of Northern Iowa, Cedar Falls, IA
Source # 138311
Entered by Matt Vernon
Checksums flac-md5 , ffp
Disc Counts 0 / 0
Media Size Compressed: 912 MB (956301312 bytes)
Uncompressed: 1.46 GB (1572886812 bytes)
Date Circulated
Date Added
05/20/2017
05/20/2017
Source Summary
flac16; SBD Master Reel > Cassette > DAT; 16 bit 44.1kHz FLAC Level8 SBE Free; Speed Correction and Patching by Jason Chastain in Audition CC; Mastering by Jamie Waddell in Wavelab 7.2.1
Grateful Dead
Sunday February 5, 1978
Cedar Falls, Iowa
Uni Dome at The University of Northern Iowa

SBD Master Reel > Cassette > DAT
16 bit 44.1kHz FLAC Level8 SBE Free
Speed Correction and Patching by Jason Chastain in Audition CC
Mastering by Jamie Waddell in Wavelab 7.2.1
a **GEMS** Production

-first digital circulation of set one, thanks to aLL involved
-set 2 circulates on Dix Pix 18 and as aLLways, please support our band by owning that wonderful release


Set One
01 Bertha >
02 Good Lovin'
03 Brown-Eyed Women
04 //El Paso
05 Tennessee Jed
06 Sunrise
07 New Minglewood Blues
08 tuning
09 Friend of the Devil
10 Passenger
11 Deal

Set Two
01 Samson and Delilah
02 Bobby Joke
03 Scarlet Begonias >
04 Fire on the Mountain
(missing) Ship of Fools
05 Truckin'>
06 drums >
07 The Other One >
08 Wharf Rat >
09 Around and Around

Encore
10  U.S. Blues

originally shared at www.shnflac.net


    length     expanded size    cdr  WAVE problems  fmt   ratio  filename
     6:25.63       68062220 B   ---   --   ---xx   flac  0.5793  gd78-02-05s1t01.flac
     5:40.49       60091292 B   ---   --   ---xx   flac  0.5857  gd78-02-05s1t02.flac
     6:24.55       67867004 B   ---   --   ---xx   flac  0.5516  gd78-02-05s1t03.flac
     3:56.00       41630444 B   ---   --   ---xx   flac  0.5451  gd78-02-05s1t04.flac
     8:21.50       88494044 B   ---   --   ---xx   flac  0.5482  gd78-02-05s1t05.flac
     3:53.21       41150636 B   ---   --   ---xx   flac  0.4990  gd78-02-05s1t06.flac
     5:22.54       56927852 B   ---   --   ---xx   flac  0.6408  gd78-02-05s1t07.flac
     1:10.12       12376268 B   ---   --   ---xx   flac  0.4441  gd78-02-05s1t08.flac
     8:19.20       88070684 B   ---   --   ---xx   flac  0.5877  gd78-02-05s1t09.flac
     5:27.62       57828668 B   ---   --   ---xx   flac  0.6687  gd78-02-05s1t10.flac
     6:44.09       71286812 B   ---   --   ---xx   flac  0.6453  gd78-02-05s1t11.flac
    11:26.28      121076300 B   ---   --   ---xx   flac  0.6555  gd78-02-05s2t01.flac
     2:02.58       21657260 B   ---   --   ---xx   flac  0.4869  gd78-02-05s2t02.flac
    12:43.40      134687324 B   ---   --   ---xx   flac  0.6439  gd78-02-05s2t03.flac
    16:24.62      173723468 B   ---   --   ---xx   flac  0.6435  gd78-02-05s2t04.flac
     9:24.74       99663692 B   ---   --   ---xx   flac  0.6044  gd78-02-05s2t05.flac
     1:55.12       20314268 B   ---   --   ---xx   flac  0.5343  gd78-02-05s2t06.flac
     8:55.06       94388156 B   ---   --   ---xx   flac  0.6358  gd78-02-05s2t07.flac
     8:54.26       94258796 B   ---   --   ---xx   flac  0.5757  gd78-02-05s2t08.flac
     8:40.38       91817420 B   ---   --   ---xx   flac  0.6355  gd78-02-05s2t09.flac
     6:22.55       67514204 B   ---   --   ---xx   flac  0.6320  gd78-02-05s2t10.flac
   148:36.44     1572886812 B                            0.6084  (21 files)


10f3615fe7884f35425c5a8eddb2f4df *gd78-02-05s1t01.flac
2370d8afc91897d5cbb1cbe2e3773359 *gd78-02-05s1t02.flac
3a978b922fc29b3079554f4381ddacea *gd78-02-05s1t03.flac
c9a90002ebddbff8f8b8233e996c1f44 *gd78-02-05s1t04.flac
94be567df4efab20d064472aea4af342 *gd78-02-05s1t05.flac
2d8c1a5127c47ba7c4188cb5b3d48fb6 *gd78-02-05s1t06.flac
565c61e5751137f6c4de3e8a8f4a7a0d *gd78-02-05s1t07.flac
129a3c3e3929cfd89a7a17abc1e6bc9b *gd78-02-05s1t08.flac
2d6a596ec52af91ab270b745083694b6 *gd78-02-05s1t09.flac
db8dd7cf86fc1655278c9adf4a1d1c04 *gd78-02-05s1t10.flac
4ee3db805dbb2dc19d56d8e0d2fb0bc1 *gd78-02-05s1t11.flac
b50b8a206d1c89cf5e5d31d9325dac5d *gd78-02-05s2t01.flac
c2bca12c81f5f4031f28a06d7e6b2a0f *gd78-02-05s2t02.flac
3bcb77391eebb09f61c6499578575f32 *gd78-02-05s2t03.flac
bdaa76e5803bd8e09be19eef4fcdcfb5 *gd78-02-05s2t04.flac
7c9e14ead45f7ccc7e74f9623b03e557 *gd78-02-05s2t05.flac
4663918d1b372b048225a158ace9f722 *gd78-02-05s2t06.flac
79613708b478cdab09a9a07c7e3f68e2 *gd78-02-05s2t07.flac
ef37db3efe6f5682e39d173561206b75 *gd78-02-05s2t08.flac
7c4e71f24750ef28f2394f3b319a5cd3 *gd78-02-05s2t09.flac
48f2038ecaa0f9a8359136533c6bbf77 *gd78-02-05s2t10.flac
ffp
gd78-02-05s1t01.flac:4bc705e3c1307fa580a3d4ec955bc535
gd78-02-05s1t02.flac:1fd70680d94cb9a92b405136cae35a6a
gd78-02-05s1t03.flac:c0ea98babf9eaa6c503dc00a9bfd756b
gd78-02-05s1t04.flac:2abc94351078ca7c1d94b6b707d49ccb
gd78-02-05s1t05.flac:0eb664b39d2e517c6e414fe4f86c3fff
gd78-02-05s1t06.flac:321c814f2da0d9812f02b72eff75d474
gd78-02-05s1t07.flac:6d97ec82d63462b4ec1f3e6cb7a7470b
gd78-02-05s1t08.flac:c4bdaa685080e6d6ae2d177b8bff439a
gd78-02-05s1t09.flac:517a60fb54bc1d28568a6d9c5c92715f
gd78-02-05s1t10.flac:677b9b256d39069d4cfac50326007258
gd78-02-05s1t11.flac:1788a859db5f137180f0820481259c56
gd78-02-05s2t01.flac:542bb253df64cb767dcbfe37a5aef594
gd78-02-05s2t02.flac:c71cf1e19cc96953aecf970f9a02e656
gd78-02-05s2t03.flac:0e4ce68c1fcea342f0683616ceb97522
gd78-02-05s2t04.flac:a6ecb510e12836b690a8ab80a166d59a
gd78-02-05s2t05.flac:d7127eeec4c5417bea6d5b3a248d93b2
gd78-02-05s2t06.flac:742dbe589f3d0b008486dfe0352899c2
gd78-02-05s2t07.flac:475c8b6732f651bad09538d046ad6b73
gd78-02-05s2t08.flac:964131d4f55f60a5318f571415b452cc
gd78-02-05s2t09.flac:98e5f06d09a72490cef28ceb86c029d5
gd78-02-05s2t10.flac:32ff833b744abddaddfafa00cb4029fa

Comments
etreedb.org
For administrative requests email contact@etreedb.org
This website written by Tom H Anderson and maintained by the etreedb.org community.

Cached: Sat, 19 Oct 2019 15:19:55 EDT