New Grass Revival 12/31/89
Oakland Coliseum, Oakland, CA
Source # 138319
Entered by ziko
Checksums ffp , md5
Disc Counts 0 / 0
Media Size Compressed: 262.64 MB (275402752 bytes)
Date Circulated
Date Added
12/31/1989
05/21/2017
Source Summary
flac16: Ultra Matrix SBD > Cassette Master (TDK MA-X90) Cassette Master (Nakamichi CR-7A) > Tascam DA-3000 (DSF 1-bit/5.8 MHz) > KORG AudioGate 4 > Samplitude Pro X3 Suite > FLAC/24, Transfers and Mastering By Charlie Miller, This is 138301 24 bit -> 16 bit
New Grass Revival - December 31, 1989
Oakland Coliseum Arena - Oakland, CA

Recording Info:
Ultra Matrix SBD > Cassette Master (TDK MA-X90)

Transfer Info:
Cassette Master (Nakamichi CR-7A) > Tascam DA-3000 (DSF 1-bit/5.8 MHz) >
KORG AudioGate 4 > Samplitude Pro X3 Suite > FLAC/24
(1 Disc FLAC)

All Transfers and Mastering By Charlie Miller
charliemiller87@earthlink.net
May 17, 2017

Notes:
-- Opened For The Grateful Dead
-- This is 138301 24 bit -> 16 bit

Lineup:
Sam Bush - mandolin, fiddle, guitar, vocals
Pat Flynn - guitar, vocals
Bela Fleck - banjo, guitar, vocals
John Cowan - bass guitar, vocals

Setlist:
01 - County Clare
02 - Do What You Gotta Do
03 - One Love
04 - Metric Lips
05 - Good Woman's Love
06 - Singin' The Blues
07 - Can't Stop Now


SHNTOOL OUTPUT:
    length     expanded size    cdr  WAVE problems  fmt   ratio  filename
     7:14.02       76562348 B   ---   --   ---xx   flac  0.6170  01 County Clare.flac
     4:08.39       43838972 B   ---   --   ---xx   flac  0.6170  02 Do What You Gotta Do.flac
     5:20.74       56622092 B   ---   --   ---xx   flac  0.6082  03 One Love.flac
     5:16.74       55916492 B   ---   --   ---xx   flac  0.5942  04 Metric Lips.flac
     4:27.23       47152940 B   ---   --   ---xx   flac  0.5938  05 Good Woman's Love.flac
    11:35.51      122717996 B   ---   --   ---xx   flac  0.6014  06 Singin' The Blues.flac
     4:50.45       51261884 B   ---   --   ---xx   flac  0.6173  07 Can't Stop Now.flac
    42:54.08      454072724 B                            0.6065  (7 files)



ffp
01 County Clare.flac:2bfe6d3a0a2254dbf055c0c5f8cb4132
02 Do What You Gotta Do.flac:0471bd97046384829f5895c32d1d8862
03 One Love.flac:00ce364f9467b573665e087fb3c6a965
04 Metric Lips.flac:c57dd16fa63cb043c67343c4b7f93bbb
05 Good Woman's Love.flac:2d4e26ddc1fe9b084ec08380d05fea12
06 Singin' The Blues.flac:5b99aecb5be342cd6862fa0ce739692a
07 Can't Stop Now.flac:3da30c868758934c45decb76908a91f2
md5
b39efc6600aae8f2dcfad874212ddd65 *01 County Clare.flac
47582aabb48c70ea6e9b1da8f588e175 *02 Do What You Gotta Do.flac
363e06eb7444032b5992f0e58127a746 *03 One Love.flac
ad47451bad8e46734efb4c82a8a02b9d *04 Metric Lips.flac
f8164632a05e5bfe7de5c6a281809dbe *05 Good Woman's Love.flac
59102f09793081aeb00aafdb9b8baae5 *06 Singin' The Blues.flac
373fcfa8c1fb83c6310e8c9e36f66f8b *07 Can't Stop Now.flac

Comments
Other Sources (comments)
SBD > DAT > CD-R > flac (0) flac24: Ultra Matrix SBD... (0)
Date User Comment
etreedb.org
For administrative requests email contact@etreedb.org
This website written by Tom H Anderson and maintained by the etreedb.org community.

Cached: Tue, 1 Dec 2020 09:02:57 EST