New Riders of the Purple Sage 09/01/77
Paul's Mall, Boston, MA
Source # 138320
Entered by Scott
Checksums nrps1973-08.27.early.ffp , nrps1973-08.27.early.md5 , shntool
Disc Counts 0 / 0
Media Size
Uncompressed: 72.46 MB (75981195 bytes)
Date Circulated
Date Added
05/22/2017
05/22/2017
Source Summary
WBCN FM > Teac tape recorder (unknown model) > master cassette
New Riders Of The Purple Sage
Paul's Mall
Boston MA.
08/27/1973

Early Show

Source: WBCN FM > Teac tape recorder (unknown model) > master cassette
               Recorded by Dave E. aka barndoggs



01   intro > Panama Red
02   15 Days Under The Hood
03   Oh What A Night
04   Henry
05   Love Has Strange Ways
06   Red Hot Women And Ice Cold Beer
07   Sutter's Mill
08   When I Need You
09   Dirty Business
10   tuning/banter
11   Louisana Lady
12   Crooked Judge
13   Twenty Good Men
14   Take A Red
15   T Is For Texas
16   Glendale Train



John Dawson - vocals, guitar
Dave Nelson - vocals, lead guitar
Buddy Cage - pedal steel
Dave Torbert – bass guitar
Spencer Dryden – drums



Comments:

Dave told me that on the day that he recorded this there was a bad thunderstorm which affected the broadcast
and caused various crackles/static on the radio.

I have cleaned this up as best I can and eq'd it as well as it sounded quite muddy.  The only annoying thing is the usual yahoos
who felt the need to leave their mark, the audience is very raucous.

BTW: When this was originally seeded it was dated 08/31/1973 in error.



Original Notes:

This is a raw tape transfer from the master cassette.  This show was uploaded to DIME by hopboy but no remastering, or anything else, has been done to it.

It was recorded by my friend, Dave E. from Uxbridge, Massachusetts. He does not torrent, but he asked me to get this out to the fans.
It has very good sound quality for a 1973 audience tape.

By the way, he says you can remaster it or improve it any way you see fit. Just re-seed it here on DIME with the info provided here, if you do.



edited and mastered
SIRMick
May 2017




nrps1973-08-27t01.flac:ccb9f8786049c42326739cd4c96e1ef7
nrps1973-08-27t02.flac:b73d8e399541e6a9c5bb89f973cdd73e
nrps1973-08-27t03.flac:4e6747f3fd101ff425912fa4642f18e0
nrps1973-08-27t04.flac:f26d2f83ecb6901498e790c31e63ad64
nrps1973-08-27t05.flac:1c8155f85b251432260185371c8bf627
nrps1973-08-27t06.flac:7c021f7d26f3de3b5d76a5e57bb9b22b
nrps1973-08-27t07.flac:1189b064000e638fc9021fbdddf68196
nrps1973-08-27t08.flac:f7336c7e94206b46be863839659a0bad
nrps1973-08-27t09.flac:2183ad19a0c7454e26003be2cae84a93
nrps1973-08-27t10.flac:5979146bda2bb9ac62b7bd2859d6eadd
nrps1973-08-27t11.flac:2d652c68d2886ab0e8bf4741f38fe7de
nrps1973-08-27t12.flac:d1d2a5dd85bc21ce52904c3a0331eb5c
nrps1973-08-27t13.flac:7f7542ac4b12605a6da6dad3dd8d5ffc
nrps1973-08-27t14.flac:40829857d205a347e79c4ffea08d419f
nrps1973-08-27t15.flac:7f80dd5cd89d784b92695a316056512e
nrps1973-08-27t16.flac:5284e383e4a96b6b893a7deeca07d7b2
9f049eab315787b89904a2c406e08f7c *nrps1973-08-27t01.flac
ad936ac923398f40aa3044d541b25a8d *nrps1973-08-27t02.flac
8103af4f761c14f21c9093b4863014dc *nrps1973-08-27t03.flac
8bca6f336a051ff56628f85caa8cd865 *nrps1973-08-27t04.flac
18c77190089180a4e81d53542c18d10d *nrps1973-08-27t05.flac
51af1ec8da3ded0ef4353ae2ae5b8340 *nrps1973-08-27t06.flac
fcb860be0fad1e83b1fbd1c922636aba *nrps1973-08-27t07.flac
ead5a50ad779bcd55cb1327e5d5baca2 *nrps1973-08-27t08.flac
46d575c6523eda2db34c685f513e643b *nrps1973-08-27t09.flac
fca34c6f4233c42c1e99730f0766408b *nrps1973-08-27t10.flac
434ca0ce487a25d08b20917cbd49ca09 *nrps1973-08-27t11.flac
4563c67606377bc1408c7813912494ab *nrps1973-08-27t12.flac
232ca0264b0a0dd089214d090c514160 *nrps1973-08-27t13.flac
e20f923f67abfa228c3fc9f10d6c781c *nrps1973-08-27t14.flac
dec493820d2e500145837122b03ff678 *nrps1973-08-27t15.flac
eeda819e28d4bdc4d5b1473e6ecb8fc8 *nrps1973-08-27t16.flac
shntool output:

length expanded size cdr WAVE problems fmt ratio filename
3:48.28 40285100 B --- -- ---xx flac 0.5590 nrps1973-08-27t01.flac
4:14.59 44944412 B --- -- ---xx flac 0.5621 nrps1973-08-27t02.flac
4:40.18 49434380 B --- -- ---xx flac 0.5596 nrps1973-08-27t03.flac
4:50.70 51320684 B --- -- ---xx flac 0.5691 nrps1973-08-27t04.flac
4:57.49 52506092 B --- -- ---xx flac 0.5601 nrps1973-08-27t05.flac
4:16.07 45174908 B --- -- ---xx flac 0.5512 nrps1973-08-27t06.flac
2:30.53 26584700 B --- -- ---xx flac 0.5466 nrps1973-08-27t07.flac
2:29.53 26408300 B --- -- ---xx flac 0.5547 nrps1973-08-27t08.flac
8:05.54 85681052 B --- -- ---xx flac 0.5590 nrps1973-08-27t09.flac
1:38.51 17407196 B --- -- ---xx flac 0.5211 nrps1973-08-27t10.flac
4:20.18 45906380 B --- -- ---xx flac 0.5428 nrps1973-08-27t11.flac
6:31.36 69057116 B --- -- ---xx flac 0.5513 nrps1973-08-27t12.flac
5:02.00 53272844 B --- -- ---xx flac 0.5346 nrps1973-08-27t13.flac
4:20.13 45894620 B --- -- ---xx flac 0.5389 nrps1973-08-27t14.flac
4:44.22 50149388 B --- -- ---xx flac 0.5361 nrps1973-08-27t15.flac
5:16.18 55784780 B --- -- ---xx flac 0.5495 nrps1973-08-27t16.flac
71:47.24 759811952 B 0.5513 (16 files)


Comments
Other Sources (comments)
unknown small tape deck... (0)
Date User Comment
etreedb.org
For administrative requests email contact@etreedb.org
This website written by Tom H Anderson and maintained by the etreedb.org community.

Cached: Thu, 5 Aug 2021 16:17:28 EDT