Grateful Dead 02/05/78
Uni Dome, University Of Northern Iowa, Cedar Falls, IA
Source # 138384
Entered by Matt Vernon
Checksums flac-md5 , ffp
Disc Counts 0 / 0
Media Size Compressed: 310.58 MB (325664768 bytes)
Uncompressed: 880.67 MB (923445032 bytes)
Date Circulated
Date Added
05/29/2017
05/29/2017
Source Summary
flac16; Set 2; Source: Unknown FOB AUD (mono) from Brian Schley tape collection; Transfer: Maxell XLII > Nakamichi CR-5A > Edirol FA-66 > Wavelab 2448 > R8Brain > CD-Wave > TLH > FLAC 1644 tagged. Transferred by Andrew F. 05/2017
GRATEFUL DEAD
UNI-Dome
Cedar Falls IA
02-05-1978
Second Set

s2t01 Samson & Delilah
s2t02 lumberjack joke
s2t03 Scarlet Begonias >
s2t04 Fire on the Mountain
s2t05 Truckin' >
s2t06 Drums >
s2t07 The Other One >
s2t08 Wharf Rat >
s2t09 Around & Around
s2t10 Encore: U.S. Blues

Source: Unknown FOB AUD (mono) from Brian Schley tape collection.

Transfer: Maxell XLII > Nakamichi CR-5A > Edirol FA-66 > Wavelab
2448 > R8Brain > CD-Wave > TLH > FLAC 1644 tagged. Transferred
by Andrew F. 05/2017

Thanks Jon Pasternak & Charlie McGuth for organizing this project!

    length     expanded size    cdr  WAVE problems  fmt   ratio  filename
    11:39.63      123451820 B   ---   --   ---xx   flac  0.3582  gd1978-02-05s2t01.flac
     1:41.64       17966972 B   ---   --   ---xx   flac  0.3469  gd1978-02-05s2t02.flac
    12:32.69      132815132 B   ---   --   ---xx   flac  0.3554  gd1978-02-05s2t03.flac
    16:37.02      175875548 B   ---   --   ---xx   flac  0.3529  gd1978-02-05s2t04.flac
    10:08.53      107375900 B   ---   --   ---xx   flac  0.3519  gd1978-02-05s2t05.flac
     1:54.04       20119052 B   ---   --   ---xx   flac  0.3417  gd1978-02-05s2t06.flac
     9:01.46       95540636 B   ---   --   ---xx   flac  0.3494  gd1978-02-05s2t07.flac
     9:04.47       96072188 B   ---   --   ---xx   flac  0.3470  gd1978-02-05s2t08.flac
     8:13.13       86995820 B   ---   --   ---xx   flac  0.3540  gd1978-02-05s2t09.flac
     6:21.10       67231964 B   ---   --   ---xx   flac  0.3531  gd1978-02-05s2t10.flac
    87:14.71      923445032 B                            0.3526  (10 files)

No errors occured.



03462d7f94611961acbfe429012db2eb *gd1978-02-05s2t01.flac
265a7a3fbe8183e491b655d84beb9a2a *gd1978-02-05s2t02.flac
db3fa474faa43fba62c2a15a04e9c132 *gd1978-02-05s2t03.flac
45bb871d1b87bb1fb4701d0bb49c2d89 *gd1978-02-05s2t04.flac
757f8b867b18e95f76678dc3bace4f00 *gd1978-02-05s2t05.flac
38decb6b5eda6160c71be5379a387310 *gd1978-02-05s2t06.flac
2c4f4f8f2c78b27a92dbe2fdb6fb7242 *gd1978-02-05s2t07.flac
09feb4aa8ff1049ed98a24d5b8de1494 *gd1978-02-05s2t08.flac
2a7e22a737ce29cedf8cb19430311656 *gd1978-02-05s2t09.flac
2a30683ff1e4d67e8eb694305683521b *gd1978-02-05s2t10.flac
ffp
gd1978-02-05s2t01.flac:e45ecd45090800b519d776211a450875
gd1978-02-05s2t02.flac:a8ba74a076632e589716ffb3a5ba9128
gd1978-02-05s2t03.flac:5f61b7783cb3e0a57632bf9bb269243d
gd1978-02-05s2t04.flac:de074f790fe02ee595f0005e8ae613e0
gd1978-02-05s2t05.flac:a1955d85b5c5fc94284f95a1d5dce099
gd1978-02-05s2t06.flac:bb23390e1382eb96c2a993738b22a482
gd1978-02-05s2t07.flac:1ba7faf865ba8ca2f51925a6320820d2
gd1978-02-05s2t08.flac:614e19d4f5c48b211bd2492769e8b970
gd1978-02-05s2t09.flac:ca1766c4c5dffd3b22248e65cd3d9fdc
gd1978-02-05s2t10.flac:62140af3f7026f7c03f5011fc9a4dd36

Comments
etreedb.org
For administrative requests email contact@etreedb.org
This website written by Tom H Anderson and maintained by the etreedb.org community.

Cached: Tue, 17 Sep 2019 09:23:58 EDT