Grateful Dead 10/17/78
Winterland Arena, San Francisco, CA
Source Summary
flac16; Source: Soundboard > Master Reel > PCM > Dat (44k); Provided by Rich Gastwirt; Transfer: Dat > Panasonic SV-3700 > Tascam DA-3000 . wav 16/44.1; Transferred by Charlie Miller; Lineage: wav > Adobe Audition 1.5 > iZotope RX6 Advanced > iZotope Ozone 5 Advanced > CD Wave > TLH > Flac 16; edited and mastered SIRMick July 2017
Grateful Dead
Winterland Arena
San Francisco, CA
10/17/1978


Source: Soundboard > Master Reel > PCM > Dat (44k)
              Provided by Rich Gastwirt
Transfer: Dat > Panasonic SV-3700 > Tascam DA-3000 . wav 16/44.1
                 Transferred by Charlie Miller
Lineage: wav > Adobe Audition 1.5 > iZotope RX6 Advanced > iZotope Ozone 5 Advanced > CD Wave > TLH > Flac 16



Set I

01   tuning
02   The Promised Land
03   tuning
04   Friend Of The Devil
05   tuning
06   Mama Tried >
07   Mexicali Blues
08   Tennessee Jed
09   I Need A Miracle
10   Stagger Lee
11   tuning
12   Jack Straw


Set II

01   tuning
02   Scarlet Begonias >
03   Fire On The Mountain
04   tuning
05   Estimated Prophet >
06   Eyes Of The World >
07   Drums >
08   Space >
09   If I Had The World To Give >
10   Around And Around

encore

11   U.S. Blues



Comments:

- during "Space" you can hear Jerry, off stage, being asked if he still gives banjo lessons.


Notes:

- Garcia's vocals float in and out of the mix at the start of "Scarlet Begonias"
- Patches:

   Eyes Of The World 9:00-10:59
   U.S. Blues - last 3:08

Patch source: AKG D224e > Sony TC-158 taped by Reinhart Holwein (shnid 100687)

The patches have been eq'd so that they are a closer match.

- I also cleaned up some of the transitions




Thanks to Reinhart Holwein for the patch source.


Thans to Rich and Charlie


edited and mastered
SIRMick
July 2017


shntool output:

    length     expanded size    cdr  WAVE problems  fmt   ratio  filename
     1:52.64       19907372 B   ---   --   ---xx   flac  0.5988  gd1978-10-17s1t01.flac
     4:15.05       44993804 B   ---   --   ---xx   flac  0.6963  gd1978-10-17s1t02.flac
     2:20.72       24865388 B   ---   --   ---xx   flac  0.5829  gd1978-10-17s1t03.flac
     8:04.34       85457612 B   ---   --   ---xx   flac  0.6542  gd1978-10-17s1t04.flac
     2:26.70       25919084 B   ---   --   ---xx   flac  0.5803  gd1978-10-17s1t05.flac
     2:32.20       26859884 B   ---   --   ---xx   flac  0.6764  gd1978-10-17s1t06.flac
     4:07.34       43650812 B   ---   --   ---xx   flac  0.6619  gd1978-10-17s1t07.flac
     8:58.45       95009084 B   ---   --   ---xx   flac  0.6590  gd1978-10-17s1t08.flac
     6:50.73       72495740 B   ---   --   ---xx   flac  0.6887  gd1978-10-17s1t09.flac
     5:50.38       61829420 B   ---   --   ---xx   flac  0.6702  gd1978-10-17s1t10.flac
     3:14.64       34372172 B   ---   --   ---xx   flac  0.5575  gd1978-10-17s1t11.flac
     6:38.65       70360124 B   ---   --   ---xx   flac  0.6700  gd1978-10-17s1t12.flac
     1:42.42       18091628 B   ---   --   ---xx   flac  0.5832  gd1978-10-17s2t01.flac
     9:33.57      101211308 B   ---   --   ---xx   flac  0.6774  gd1978-10-17s2t02.flac
    10:51.12      114864668 B   ---   --   ---xx   flac  0.6626  gd1978-10-17s2t03.flac
     4:05.56       43349756 B   ---   --   ---xx   flac  0.5716  gd1978-10-17s2t04.flac
    11:44.57      124319708 B   ---   --   ---xx   flac  0.6573  gd1978-10-17s2t05.flac
    15:34.21      164807036 B   ---   --   ---xx   flac  0.6367  gd1978-10-17s2t06.flac
    10:05.10      106745564 B   ---   --   ---xx   flac  0.6658  gd1978-10-17s2t07.flac
    10:34.31      111910556 B   ---   --   ---xx   flac  0.6284  gd1978-10-17s2t08.flac
     7:07.10       75346364 B   ---   --   ---xx   flac  0.6703  gd1978-10-17s2t09.flac
     9:46.26      103431596 B   ---   --   ---xx   flac  0.6868  gd1978-10-17s2t10.flac
     5:55.30       62692604 B   ---   --   ---xx   flac  0.5789  gd1978-10-17s2t11.flac
   154:14.36     1632491284 B                            0.6505  (23 files)

flac fingerprints:

gd1978-10-17s1t01.flac:313f2890d94975bce2feaf9e30181b2e
gd1978-10-17s1t02.flac:88d8170e304bbf14353c1117ffd7fe8b
gd1978-10-17s1t03.flac:ad82491c7625df1acb3e5f421f50f7a5
gd1978-10-17s1t04.flac:e5a60db9bd2d5cb9d6bb49249a181b87
gd1978-10-17s1t05.flac:87d1161c206d5a429989aa0e1d5c5ca3
gd1978-10-17s1t06.flac:5c97263e02629f9389b80e6e8f5cd348
gd1978-10-17s1t07.flac:d34c9ae3d9750bdc2365cd8bedabca80
gd1978-10-17s1t08.flac:28f45bf8615b4e6221c04f538d0d8da1
gd1978-10-17s1t09.flac:27f0f5d2b97ea7199d1d18f8589e629f
gd1978-10-17s1t10.flac:c3a7a7287034a10f18c77e004e432d6a
gd1978-10-17s1t11.flac:7cb00e873bd9540ef6074504e6e78700
gd1978-10-17s1t12.flac:88c568d8dd06c70e0ef6729e379c0dc1
gd1978-10-17s2t01.flac:41cad7941a7916c4f83a4c0f2d652dac
gd1978-10-17s2t02.flac:c4dec5254a022c612090365323e9028c
gd1978-10-17s2t03.flac:ce373992e272aa78862e700d01b43a8b
gd1978-10-17s2t04.flac:bc5f2935f56b0f68e0f24008303e5cb6
gd1978-10-17s2t05.flac:7f5dd46aaaca8d5ecbbeacdeec614ae3
gd1978-10-17s2t06.flac:b60e989b14859f94de0367d2ac2d1e33
gd1978-10-17s2t07.flac:ff7bd0b6c342718f8bc8f645db1703d0
gd1978-10-17s2t08.flac:18299946da15f8f0a872022fed51a695
gd1978-10-17s2t09.flac:941142aa3a33ae346223a314a3b41c84
gd1978-10-17s2t10.flac:b92edd96662843d3c849230dabe8a938
gd1978-10-17s2t11.flac:d918dc67866ae5fbfc851a7a639c1321


7e33ab127e9b44b72bdfa30fe9a9d039 *gd1978-10-17s1t01.flac
938bc778ba1e81e8a13255266139ac03 *gd1978-10-17s1t02.flac
949b6095f214e5572a1e4cfcf523c36f *gd1978-10-17s1t03.flac
e705ce4b84c94532341434ca228c4ae8 *gd1978-10-17s1t04.flac
132252353ef2b82ad9ca93c18c1cd375 *gd1978-10-17s1t05.flac
31b748ea6ba45d66636e3ed27dea3440 *gd1978-10-17s1t06.flac
89db19f04f4fa8531bff6bf6169b42cc *gd1978-10-17s1t07.flac
63ad97127f73cba13e2e20f5db4bf6a4 *gd1978-10-17s1t08.flac
610e61754834b508cdf196420383d2a9 *gd1978-10-17s1t09.flac
57a342c5f52ca9e2121b6858c591100d *gd1978-10-17s1t10.flac
46fa2866ab2e8c3d222573358019fbe3 *gd1978-10-17s1t11.flac
87685ec9bb0d81e72d13e9c14b6c29fc *gd1978-10-17s1t12.flac
172fa51c5fa35b34ad23321fdf8705c2 *gd1978-10-17s2t01.flac
89813a4548124a60efcf55ed39dc7504 *gd1978-10-17s2t02.flac
89a42db8846d1ef9b1c3745de0eaf098 *gd1978-10-17s2t03.flac
b84d1381eb5396ee890704e3d1db5502 *gd1978-10-17s2t04.flac
4ebcfd0d198ae2dc64097bdf5613d202 *gd1978-10-17s2t05.flac
e0f7682bda4483f98211714a36c8b4b7 *gd1978-10-17s2t06.flac
90062827ced1a530214dfddac884e004 *gd1978-10-17s2t07.flac
274f47088f4a04549fba67724f99b4bc *gd1978-10-17s2t08.flac
f1fd3f75354d10724cd4835ed72a0701 *gd1978-10-17s2t09.flac
db3ffc7dcc5c6e1485799cba42e38ad6 *gd1978-10-17s2t10.flac
7a4c2959bd671a2bc26026a694f4ffa2 *gd1978-10-17s2t11.flac
ffp
gd1978-10-17s1t01.flac:313f2890d94975bce2feaf9e30181b2e
gd1978-10-17s1t02.flac:88d8170e304bbf14353c1117ffd7fe8b
gd1978-10-17s1t03.flac:ad82491c7625df1acb3e5f421f50f7a5
gd1978-10-17s1t04.flac:e5a60db9bd2d5cb9d6bb49249a181b87
gd1978-10-17s1t05.flac:87d1161c206d5a429989aa0e1d5c5ca3
gd1978-10-17s1t06.flac:5c97263e02629f9389b80e6e8f5cd348
gd1978-10-17s1t07.flac:d34c9ae3d9750bdc2365cd8bedabca80
gd1978-10-17s1t08.flac:28f45bf8615b4e6221c04f538d0d8da1
gd1978-10-17s1t09.flac:27f0f5d2b97ea7199d1d18f8589e629f
gd1978-10-17s1t10.flac:c3a7a7287034a10f18c77e004e432d6a
gd1978-10-17s1t11.flac:7cb00e873bd9540ef6074504e6e78700
gd1978-10-17s1t12.flac:88c568d8dd06c70e0ef6729e379c0dc1
gd1978-10-17s2t01.flac:41cad7941a7916c4f83a4c0f2d652dac
gd1978-10-17s2t02.flac:c4dec5254a022c612090365323e9028c
gd1978-10-17s2t03.flac:ce373992e272aa78862e700d01b43a8b
gd1978-10-17s2t04.flac:bc5f2935f56b0f68e0f24008303e5cb6
gd1978-10-17s2t05.flac:7f5dd46aaaca8d5ecbbeacdeec614ae3
gd1978-10-17s2t06.flac:b60e989b14859f94de0367d2ac2d1e33
gd1978-10-17s2t07.flac:ff7bd0b6c342718f8bc8f645db1703d0
gd1978-10-17s2t08.flac:18299946da15f8f0a872022fed51a695
gd1978-10-17s2t09.flac:941142aa3a33ae346223a314a3b41c84
gd1978-10-17s2t10.flac:b92edd96662843d3c849230dabe8a938
gd1978-10-17s2t11.flac:d918dc67866ae5fbfc851a7a639c1321

Comments
etreedb.org
For administrative requests email contact@etreedb.org
This website written by Tom H Anderson and maintained by the etreedb.org community.

Cached: Sun, 29 Nov 2020 20:59:04 EST