Grateful Dead 02/03/78
Dane County Coliseum, Madison, WI
Source # 139370
Entered by Matt Vernon
Checksums ffp , flac-md5
Disc Counts 0 / 0
Media Size Compressed: 916.08 MB (960581939 bytes)
Uncompressed: 1.52 GB (1632707492 bytes)
Date Circulated
Date Added
09/20/2017
09/20/2017
Source Summary
flac16; Recording Info: SBD > Master Reel > Dat (44.1k); Transfer Info: Dat (Sony PCM-R500) > Tascam DA-3000 > Samplitude Pro X3 Suite > FLAC; All Transfers and Mastering By Charlie Miller; Six songs from Set 1 are .mp3 sourced
Grateful Dead - February 3, 1978
Dane County Coliseum - Madison, WI

Recording Info:
SBD > Master Reel > Dat (44.1k)

Transfer Info:
Dat (Sony PCM-R500) > Tascam DA-3000 > Samplitude Pro X3 Suite > FLAC
(2 Discs Audio / 2 Discs FLAC)

All Transfers and Mastering By Charlie Miller
charliemiller87@earthlink
September 19, 2017

Set 1 Patch Info:
These songs are MP3 sourced from the Master Reel:
Mexicali Blues, Big River, Loser, Passenger, El Paso and Peggy-O

Set 2 Patch Info:
Audience Cassette Master > PCM > Dat > CD (shnid=19465) supplies:
Eyes Of The World (10:47 - 11:06)

Set 1:
01 - Cold Rain And Snow
02 - Mexicali Blues >
03 - Big River
04 - They Love Each Other
05 - Looks Like Rain
06 - Loser
07 - Passenger
08 - Brown Eyed Women
09 - El Paso
10 - Peggy-O
11 - The Music Never Stopped

Set 2:
12 - Good Lovin'
13 - Ship Of Fools
14 - Estimated Prophet >
15 - Eyes Of The World >
16 - Playing In The Band >
17 - The Wheel >
18 - Playing In The Band

Encore:
19 - Johnny B. Goode


SHNTOOL OUTPUT:
    length     expanded size    cdr  WAVE problems  fmt   ratio  filename
     6:05.32       64461308 B   ---   --   ---xx   flac  0.5657  01 Cold Rain And Snow.flac
     3:27.40       36608924 B   ---   --   ---xx   flac  0.5779  02 Mexicali Blues.flac
     6:06.28       64628300 B   ---   --   ---xx   flac  0.5710  03 Big River.flac
     7:06.09       75167612 B   ---   --   ---xx   flac  0.5528  04 They Love Each Other.flac
     8:32.38       90406220 B   ---   --   ---xx   flac  0.5179  05 Looks Like Rain.flac
     7:45.61       82169516 B   ---   --   ---xx   flac  0.5439  06 Loser.flac
     4:53.41       51781676 B   ---   --   ---xx   flac  0.6120  07 Passenger.flac
     5:49.13       61594220 B   ---   --   ---xx   flac  0.5480  08 Brown Eyed Women.flac
     4:25.45       46851884 B   ---   --   ---xx   flac  0.5589  09 El Paso.flac
     7:04.34       74873612 B   ---   --   ---xx   flac  0.5431  10 Peggy-O.flac
     8:01.21       84897836 B   ---   --   ---xx   flac  0.6134  11 The Music Never Stopped.flac
     6:09.02       65096348 B   ---   --   ---xx   flac  0.6732  12 Good Lovin'.flac
     7:35.12       80290268 B   ---   --   ---xx   flac  0.5851  13 Ship Of Fools.flac
    12:11.58      129084860 B   ---   --   ---xx   flac  0.6093  14 Estimated Prophet.flac
    15:00.18      158802380 B   ---   --   ---xx   flac  0.6295  15 Eyes Of The World.flac
    24:33.66      259992476 B   ---   --   ---xx   flac  0.5891  16 Playing In The Band.flac
     5:04.46       53733836 B   ---   --   ---xx   flac  0.6104  17 The Wheel.flac
     9:56.15      105169724 B   ---   --   ---xx   flac  0.5949  18 Playing In The Band.flac
     4:26.74       47096492 B   ---   --   ---xx   flac  0.6517  19 Johnny B Goode.flac
   154:15.53     1632707492 B                            0.5883  (19 files)


ffp
01 Cold Rain And Snow.flac:6a838bd547617d192c852f62a435b7e1
02 Mexicali Blues.flac:689ecacc75d00c49b8a774be9f602f0a
03 Big River.flac:577e2c7982ba5975fbc680179bbfce71
04 They Love Each Other.flac:c9e894111c8ff7eb8e30dab2c7733e40
05 Looks Like Rain.flac:91a786e0006f2ea839ff464f1b2bb3f9
06 Loser.flac:ef09bad4cdb91f4ef2010896ca623b88
07 Passenger.flac:56becaee7f5911c48447e8241ec98743
08 Brown Eyed Women.flac:cf1ac501b02aa2d1ce0fe2c34db94f0c
09 El Paso.flac:65b6a77a20519d0e9de7d7bcd4e871ec
10 Peggy-O.flac:6e3e8390ef288a2e7272a6b4cd52a42a
11 The Music Never Stopped.flac:8a6cfe81c65dcd94e055caaaff4186d8
12 Good Lovin'.flac:071143da08125c002146d3c8a97fff8c
13 Ship Of Fools.flac:f922aa7eb787888bcc5ccc7f18b0d951
14 Estimated Prophet.flac:903f2d4a1748f4c68cdc9a43605b657e
15 Eyes Of The World.flac:2b05884157f3e63f3fb5a8dc07bdb73d
16 Playing In The Band.flac:3b9bbf57efcf2f45d98159955f4a9ff5
17 The Wheel.flac:9c51df7d87127c730e5e28981411cc88
18 Playing In The Band.flac:d570f864d508082e0c9ac6c8542bd7b9
19 Johnny B Goode.flac:21fb0f2473b0521e10a9d5e6eabdbc1e
aed7cd457200382aa792a385099e4234 *01 Cold Rain And Snow.flac
f102de573858334e9cc2c67df125758c *02 Mexicali Blues.flac
f4eda4eb574d4d90eee77ee5a80697d4 *03 Big River.flac
c8688dc2353f49ee09a453ab8197c4e0 *04 They Love Each Other.flac
89e0568b2d003002c17cd49e1e2f091d *05 Looks Like Rain.flac
582a7563c38644a67942a8e446092bab *06 Loser.flac
fdaafeedf0acb53c0360b78a3b909bc0 *07 Passenger.flac
7c4aee9ef446c47d79b866dd058598ec *08 Brown Eyed Women.flac
caf698e638079173d36521478a1607e5 *09 El Paso.flac
fd5f0da9e2c3920a6fa9238daac130bc *10 Peggy-O.flac
35dcade8a0e0804ccd643e6716963d4f *11 The Music Never Stopped.flac
a3c8886386e1aa3c40e9eb7b1bc2cac5 *12 Good Lovin'.flac
1ad74e8ad03d364f56471f770ad1e05b *13 Ship Of Fools.flac
c1e82efa18de4916de5f25919876f53e *14 Estimated Prophet.flac
3b462b2b5bec0498f180765cb5255789 *15 Eyes Of The World.flac
72f8bcbde6a30fccb2baae79524162fb *16 Playing In The Band.flac
b2ff2d273451c6b915449182bd3d0725 *17 The Wheel.flac
c1cf72033e37e33f12917ed901bd844c *18 Playing In The Band.flac
defbdfcf43c8af2bd66a6d7c8154a28c *19 Johnny B Goode.flac

Comments
Other Sources (comments)
Set 2 Only:... (0) Master audience cassette... (0) flac16 ; Set 2 Only; 7... (0)
Date User Comment
etreedb.org
For administrative requests email contact@etreedb.org
This website written by Tom H Anderson and maintained by the etreedb.org community.

Cached: Tue, 17 Sep 2019 09:23:29 EDT