Grateful Dead 12/31/78
Winterland Arena, San Francisco, CA
Source Summary
flac16; Source: sbd > master reel (15ips half track) > pcm > dat (44.1k) - Provided by Rich Gastwirt; Transfer: Dat > Panasonic SV-3700 > Tascam DA-3000; wav 16/44.1 - Transferred by Charlie Miller; Lineage: wav > iZotope RX6 Advanced > iZotope Ozone 5 Advanced > CD Wave > TLH > Flac 16 edited and mastered SIRMick
Grateful Dead
Winterland Arena
San Francisco, CA
12/31/1978


Source: sbd > master reel (15ips half track) > pcm > dat (44.1k) - Provided by Rich Gastwirt
Transfer: Dat > Panasonic SV-3700 > Tascam DA-3000 . wav 16/44.1 - Transferred by Charlie Miller
Lineage: wav > iZotope RX6 Advanced > iZotope Ozone 5 Advanced > CD Wave > TLH > Flac 16



Set I

01   countdown (1)
02   Sugar Magnolia >
03   Scarlet Begonias >
04   Fire On The Mountain
05   Me And My Uncle >
06   Big River
07   Friend Of The Devil
08   tuning/banter
09   It's All Over Now
10   Stagger Lee
11   From The Heart Of Me >
12   Sunshine Daydream


Set II

01   tuning
02   Samson And Delilah
03   Ramble On Rose
04   tuning/banter
05   I Need A Miracle > (2)
06   Terrapin Station >
07   Playing In The Band >
08   Drums > (4) (5)
09   Not Fade Away > (5) (6)
10   Around And Around (6)


Set III

01   tuning
02   Dark Star >
03   The Other One >
04   Dark Star Jam >
05   Wharf Rat >
06   Saint Stephen >
07   Good Lovin'
08   ~~encore break~~

encore

09   Casey Jones >
10   Johnny B. Goode
11   Bill Graham namechecking the band
12   And We Bid You Good Night > more from Bill Graham.




guests:

Dan Aykroyd  midnight countdown  (1)
Matthew Kelly  harmonica  (2)
Ken Kesey  thunder machine (3)
Greg Errico  drums (4)
Lee Oskar  harmonica (5)
John Cipollina  guitar (6)



Comments;

- "The Closing On Winterland" has a splice in "Drums" at about 9:11, approximately 52 seconds are missing.


Notes:

Patches;

- First 4 tracks patched with Matt Smith's transfer of Pat Lee's FM Master  shnid 133282
- "It's All Over Now" patched with Jay Ashley's SBD > MR > PCM > DAT > CDA  shnid 1791- first 7 seconds
- "From The Heart Of Me" , first 1:10 patched with Pat Lee's FM then next 49 seconds with Jay Ashley's SBD
- "Playing In The Band", first 52 seconds and last 6:32 patched with Jay Ashley's SBD,
- " I Need A Miracle", 0:31.5 - 1:04.1 patched with Jay Ashley's SBD
- Last three tracks of Set II from Jay Ashley's SBD, except for "Drums" 0.42.6 - 1:29  patched with Matt Smith's transfer of Sandy Troy's FM Master shnid 133282
- Saint Stephen > 3:22 - 4:40, patched with Sandy Troy's FM
- "And We Bid You Good Night" from Rheinhart Holwein recording shnid 106102
- A number of clicks have been removed from the FM patches.
- All tracks, including patches have been pitch corrected.



I'll admit that this doesn't make great readiing but the main source is definitely an upgrade.


Thanks to everyone involved with the patch sources.

Thanks to Rich and Charlie for this monster show.



edited and mastered
SIRMick


shntool output:

    length     expanded size    cdr  WAVE problems  fmt   ratio  filename
     0:47.09        8312012 B   ---   --   ---xx   flac  0.6103  gd1978-12-31s1t01.flac
     5:51.22       61968188 B   ---   --   ---xx   flac  0.6568  gd1978-12-31s1t02.flac
    11:48.70      125055884 B   ---   --   ---xx   flac  0.6293  gd1978-12-31s1t03.flac
    13:20.11      141145916 B   ---   --   ---xx   flac  0.6137  gd1978-12-31s1t04.flac
     3:04.07       32474108 B   ---   --   ---xx   flac  0.6157  gd1978-12-31s1t05.flac
     7:07.36       75407516 B   ---   --   ---xx   flac  0.5804  gd1978-12-31s1t06.flac
     9:38.26      102020396 B   ---   --   ---xx   flac  0.5701  gd1978-12-31s1t07.flac
     2:14.49       23752892 B   ---   --   ---xx   flac  0.3860  gd1978-12-31s1t08.flac
     8:46.47       92896988 B   ---   --   ---xx   flac  0.5884  gd1978-12-31s1t09.flac
     7:00.28       74153900 B   ---   --   ---xx   flac  0.6151  gd1978-12-31s1t10.flac
     3:45.18       39732380 B   ---   --   ---xx   flac  0.5662  gd1978-12-31s1t11.flac
     2:56.34       31126412 B   ---   --   ---xx   flac  0.6638  gd1978-12-31s1t12.flac
     1:01.23       10814540 B   ---   --   ---xx   flac  0.4066  gd1978-12-31s2t01.flac
     8:03.09       85222412 B   ---   --   ---xx   flac  0.6293  gd1978-12-31s2t02.flac
     8:07.07       85923308 B   ---   --   ---xx   flac  0.5791  gd1978-12-31s2t03.flac
     1:44.17       18385628 B   ---   --   ---xx   flac  0.4224  gd1978-12-31s2t04.flac
    11:15.70      119234684 B   ---   --   ---xx   flac  0.6222  gd1978-12-31s2t05.flac
    12:24.21      131291036 B   ---   --   ---xx   flac  0.5861  gd1978-12-31s2t06.flac
    13:01.74      137942492 B   ---   --   ---xx   flac  0.6566  gd1978-12-31s2t07.flac
    20:11.25      213679244 B   ---   --   ---xx   flac  0.5830  gd1978-12-31s2t08.flac
    19:35.39      207361772 B   ---   --   ---xx   flac  0.6147  gd1978-12-31s2t09.flac
     8:59.49       95194892 B   ---   --   ---xx   flac  0.6470  gd1978-12-31s2t10.flac
     0:59.28       10473500 B   ---   --   ---xx   flac  0.3930  gd1978-12-31s3t01.flac
    11:20.63      120100220 B   ---   --   ---xx   flac  0.5842  gd1978-12-31s3t02.flac
     4:54.73       52033340 B   ---   --   ---xx   flac  0.6151  gd1978-12-31s3t03.flac
     1:04.56       11421356 B   ---   --   ---xx   flac  0.5563  gd1978-12-31s3t04.flac
    11:12.57      118674908 B   ---   --   ---xx   flac  0.5330  gd1978-12-31s3t05.flac
     7:51.58       83220860 B   ---   --   ---xx   flac  0.5884  gd1978-12-31s3t06.flac
     9:42.13      102695420 B   ---   --   ---xx   flac  0.6229  gd1978-12-31s3t07.flac
     3:27.48       36627740 B   ---   --   ---xx   flac  0.3968  gd1978-12-31s3t08.flac
     5:16.72       55911788 B   ---   --   ---xx   flac  0.5784  gd1978-12-31s3t09.flac
     4:44.24       50154092 B   ---   --   ---xx   flac  0.6444  gd1978-12-31s3t10.flac
     1:31.53       16177100 B   ---   --   ---xx   flac  0.4510  gd1978-12-31s3t11.flac
     4:36.38       48775820 B   ---   --   ---xx   flac  0.5083  gd1978-12-31s3t12.flac
   247:28.74     2619362744 B                            0.5943  (34 files)


c05a671cb49f4283edabe2d846473b85 *gd1978-12-31s1t01.flac
ff5834dd329ca66ae8f90f725f730a24 *gd1978-12-31s1t02.flac
464c581c8cbd45a9b99f99a0707c4a73 *gd1978-12-31s1t03.flac
016779c79d5f6b77e71723373c6c3e2f *gd1978-12-31s1t04.flac
1701b493b2016436949e463d7eb02cb3 *gd1978-12-31s1t05.flac
64529ccb6b4af0ad682c45ee2821da97 *gd1978-12-31s1t06.flac
747c14c5407181d18d0060c02ce4f2a4 *gd1978-12-31s1t07.flac
b953c9226189ccb133e79f2d446faf31 *gd1978-12-31s1t08.flac
ff5c53745ddd41a977d9de99919e638c *gd1978-12-31s1t09.flac
195406b8d15a2345db5a7454322dc6cd *gd1978-12-31s1t10.flac
120774f90667d9f4acc1c7644db87fe4 *gd1978-12-31s1t11.flac
f1b4728fac16920a045f347a4afdaa48 *gd1978-12-31s1t12.flac
dc2c01c6ad202d50c0b084b8151f63c1 *gd1978-12-31s2t01.flac
267e78f60c9a0bb249bc646f0cc03b96 *gd1978-12-31s2t02.flac
1a41b79b876d416c11a374f35caafb74 *gd1978-12-31s2t03.flac
91399b791e95f6891316450574edb328 *gd1978-12-31s2t04.flac
43b911175151f23da9556b2d95f0b9ee *gd1978-12-31s2t05.flac
9863626d7442c36be103b4f9738072b0 *gd1978-12-31s2t06.flac
90f8005f1b0d15465b9aecc7d3d03e4f *gd1978-12-31s2t07.flac
94ca6e6b904714827a2e07e5bc610bfd *gd1978-12-31s2t08.flac
9ecacf905126ca1045edc0ac381c3256 *gd1978-12-31s2t09.flac
2875b3f0d296f1f3ae7696ab87e9bcf7 *gd1978-12-31s2t10.flac
17a253979155506f069b550eb1f5213e *gd1978-12-31s3t01.flac
3460b2d4ff5d304570e71f9325b9e7c6 *gd1978-12-31s3t02.flac
199f52bbdd092d5551573173a548b947 *gd1978-12-31s3t03.flac
6f876f12dcadedb821e81e58140ebbfa *gd1978-12-31s3t04.flac
4357b6899491edb7e8eb7da1744f4ca8 *gd1978-12-31s3t05.flac
754f581936407b311d654b3d9214b6d1 *gd1978-12-31s3t06.flac
d9c09d1d589463c63197e165e98085f5 *gd1978-12-31s3t07.flac
8afcc960fb8c071c2153522d8f7daa88 *gd1978-12-31s3t08.flac
069d7932b11e5f16079931f101090b77 *gd1978-12-31s3t09.flac
da62123dffe8af36b464e0924f6ee300 *gd1978-12-31s3t10.flac
c818bdac43c80a7056cfb34c038fde76 *gd1978-12-31s3t11.flac
636697c83a66c585c8a52807f644ecfe *gd1978-12-31s3t12.flac
ffp
gd1978-12-31s1t01.flac:b5b0676decc450c478fa4104c9141f77
gd1978-12-31s1t02.flac:dc1b2f068ef2a1470606a429718d9b62
gd1978-12-31s1t03.flac:cebab354899b85998673da87fa1b2360
gd1978-12-31s1t04.flac:701b79d840821d182a1337c2b5b6e6a0
gd1978-12-31s1t05.flac:a8d7adaf2bb3bc648eb07cec3d59d354
gd1978-12-31s1t06.flac:efd6e39137b0e04cf19236088eb2bad6
gd1978-12-31s1t07.flac:86a44f0a521991db5f95b836e8ea987a
gd1978-12-31s1t08.flac:e8bc0d88c04ec945ea40988d8b771762
gd1978-12-31s1t09.flac:7c92bb9f4a21464cac94db557c25ecb2
gd1978-12-31s1t10.flac:d768707d905ab1a9858bfd21f7557a57
gd1978-12-31s1t11.flac:b47dab383ac0acda57c1cf51647c6234
gd1978-12-31s1t12.flac:8a106f005cbf08a1701751714996906a
gd1978-12-31s2t01.flac:22749c502bdcd996224f32a85fb51334
gd1978-12-31s2t02.flac:37e348c4af51e04fc6505b1a7e9dc42b
gd1978-12-31s2t03.flac:b9917e3f39eea71d1c00f0b730305ef3
gd1978-12-31s2t04.flac:7b12d220199a95c994d6467ba4b60832
gd1978-12-31s2t05.flac:1f168cecfe359dcef2a219d97b272209
gd1978-12-31s2t06.flac:d5917d21c090e535c2e70dcfe55acc76
gd1978-12-31s2t07.flac:fc51bde688ce397391807fe51bee0d31
gd1978-12-31s2t08.flac:4d9cccba342ba9c6a3aa1bc05c6dd9e8
gd1978-12-31s2t09.flac:784f95900d04727bdcfa0c9b411a4aac
gd1978-12-31s2t10.flac:a8fd89eb15e748296e4fe6599cb72d1e
gd1978-12-31s3t01.flac:9314c9544f2db050b08556a71f2f6fb2
gd1978-12-31s3t02.flac:1d185ce7b243ba640d24a800968ef924
gd1978-12-31s3t03.flac:ad8e6482e251bb8349a614d9a2aa95e3
gd1978-12-31s3t04.flac:c5f8cb41946e919358bad37dba3eb90e
gd1978-12-31s3t05.flac:2fe2e751804322b280b51ca5f1f70bd7
gd1978-12-31s3t06.flac:3cebb34d4e640bdabf8ef157b477b948
gd1978-12-31s3t07.flac:7a7dbe54c436de23a166785ce49692a1
gd1978-12-31s3t08.flac:00bc5e5806eea7c608a6b2c2d3d13e55
gd1978-12-31s3t09.flac:ef929660c9b9d496ca72470d483c21f7
gd1978-12-31s3t10.flac:36ec4ce855a5ce6f893210503718113a
gd1978-12-31s3t11.flac:c71bb7098d2352d9b289b6e55a402617
gd1978-12-31s3t12.flac:8c46fb8713727b1d9a809d2cd8da8d72

Comments
etreedb.org
For administrative requests email contact@etreedb.org
This website written by Tom H Anderson and maintained by the etreedb.org community.

Cached: Tue, 17 Sep 2019 09:23:18 EDT