Grateful Dead 09/02/78
Giants Stadium, East Rutherford, NJ
Source Summary
flac16; Set 2 Source: (FOB) Sony 54P > Sony TC-158SD > Cassette Master; taped by Bob Wagner; Transfer: Cassette Master > Nakamichi CR-7A > Tascam DA-3000 >DSF 1-bit/5.8 MHz; Conversion by Charlie Miller : DSF > KORG AudioGate 4 > wav 24/96; Lineage: wav 24/96 > Adobe Audition 3.0 > iZotope RX 6 Advanced > iZotope Ozone 5 Advanced > CD Wave > TLH > Flac 24; edited and mastered SIRMick September 2017
Grateful Dead
Giants Stadium
East Rutherford, NJ
09/02/1978



Source: (FOB) Sony 54P > Sony TC-158SD > Cassette Master
               taped by Bob Wagner
Transfer: Cassette Master > Nakamichi CR-7A > Tascam DA-3000 >DSF 1-bit/5.8 MHz
                Conversion by Charlie Miller : DSF > KORG AudioGate 4 > wav 24/96
Lineage: wav 24/96 > Adobe Audition 3.0 > iZotope RX 6 Advanced > iZotope Ozone 5 Advanced > CD Wave > TLH > Flac 24


Notes:
-- This file set is 16 bit


Set II

01   crowd/tuning
02   Good Lovin'
03   crowd/tuning
04   Scarlet Begonias >
05   Fire On The Mountain
06   crowd/tuning
07   Estimated Prophet >
08   Eyes Of The World  >
09   Drums >
10   Space >
11   Sugar Magnolia
12   ~~encore break~~

encore

13   One More Saturday Night



Notes:

- Bob only taped Set II due to a very late arrival.
- DC Offset removed.
- All tracks have been pitch corrected.
- Tape flips crossfaded except for "Drums" which has been patched with two Sony EMC-33P mics > Sony
  TC-152 deck, 50-60 feet left center from the stage.  Recorded by Steve Rolfe
- A number of artifacts have been removed.
- Loud claps close to the mics have been attentuated.
- Some level adjustments made.


Thanks to Bob Wagner for taping and Charlie Miller for the transfer


edited and mastered
SIRMick
September 2017


shntool output:

    length     expanded size    cdr  WAVE problems  fmt   ratio  filename
     1:22.24       14521292 B   ---   --   ---xx   flac  0.4455  gd1978-09-02s2t01.flac
     7:16.54       77037452 B   ---   --   ---xx   flac  0.5519  gd1978-09-02s2t02.flac
     2:47.04       29468252 B   ---   --   ---xx   flac  0.4736  gd1978-09-02s2t03.flac
    14:16.03      151005500 B   ---   --   ---xx   flac  0.5447  gd1978-09-02s2t04.flac
    13:49.06      146249756 B   ---   --   ---xx   flac  0.5348  gd1978-09-02s2t05.flac
     3:16.21       34623836 B   ---   --   ---xx   flac  0.4324  gd1978-09-02s2t06.flac
    14:47.08      156485660 B   ---   --   ---xx   flac  0.5398  gd1978-09-02s2t07.flac
    15:48.30      167297804 B   ---   --   ---xx   flac  0.5482  gd1978-09-02s2t08.flac
     6:52.19       72721532 B   ---   --   ---xx   flac  0.5230  gd1978-09-02s2t09.flac
     1:28.52       15645548 B   ---   --   ---xx   flac  0.5008  gd1978-09-02s2t10.flac
    10:22.12      109749068 B   ---   --   ---xx   flac  0.5854  gd1978-09-02s2t11.flac
     2:43.62       28899068 B   ---   --   ---xx   flac  0.4854  gd1978-09-02s2t12.flac
     5:13.44       55316732 B   ---   --   ---xx   flac  0.5795  gd1978-09-02s2t13.flac
   100:03.39     1059021500 B                            0.5390  (13 files)


ffp
gd1978-09-02s2t01.flac:3ba444665b4569d2b43a3aa24e3b1184
gd1978-09-02s2t02.flac:4ff86be709d34804333c4fb4a4c95432
gd1978-09-02s2t03.flac:af87a9f1a9690854286ba9bfc48d9b88
gd1978-09-02s2t04.flac:729bfb70bb50244d313decf6aadbd0ae
gd1978-09-02s2t05.flac:9d32d6898bbd46ab3ab5ee11d5aa795b
gd1978-09-02s2t06.flac:665738587ff8a3e8c82b086bf744ec2f
gd1978-09-02s2t07.flac:ffae649bd21167bbc8192eb994afc0d1
gd1978-09-02s2t08.flac:26bf458a64e17d4b41fc1b002aab0b93
gd1978-09-02s2t09.flac:0afa3781e4ddfe210c351bfbffb6d264
gd1978-09-02s2t10.flac:b8b6fd3a99ce63d88e5e844cdafac1bd
gd1978-09-02s2t11.flac:adcdf35b1045dbd0036acdc1e0c001b1
gd1978-09-02s2t12.flac:bdd0220cb71940619c54df0e31eedd3d
gd1978-09-02s2t13.flac:fb13978d818cef8a46e66587565b2bae
05d9932a5dfddd87edc7c521cedb09c8 *gd1978-09-02s2t01.flac
ca13ddd34922478ebfab84f284321dd2 *gd1978-09-02s2t02.flac
e9ab094e85c367143f649c86d1280e04 *gd1978-09-02s2t03.flac
27d624e0de6f5dea38609e1ac9fcbf56 *gd1978-09-02s2t04.flac
1c4f323149fca26e6444f51c4ec16f8c *gd1978-09-02s2t05.flac
025e76bb31135ed932c01cb8d5b1cf76 *gd1978-09-02s2t06.flac
c3670d7fceb7cbb1217fb15a5d3d05b1 *gd1978-09-02s2t07.flac
e503043029379bb550e0e395ed5f4532 *gd1978-09-02s2t08.flac
fe32a22464eeec54b538ec330995e545 *gd1978-09-02s2t09.flac
aa6a4b47cdcbc3df56d9e0df014ecdc7 *gd1978-09-02s2t10.flac
bd0bf5a44ce434270f2cff6a9d4947dd *gd1978-09-02s2t11.flac
e610da6ad18067c164aae05e7b3cc16e *gd1978-09-02s2t12.flac
5d30e0b8c6464c7380f801f016b52f24 *gd1978-09-02s2t13.flac

Comments
etreedb.org
For administrative requests email contact@etreedb.org
This website written by Tom H Anderson and maintained by the etreedb.org community.

Cached: Tue, 20 Oct 2020 21:30:56 EDT