Grateful Dead 09/16/78
Gizah Sound and Light Theater, Cairo, Egypt
Source Summary
flac16; Recorded In "Khafre's Temple Near Sphinx, Total Eclipse Of The Moon, 23" - Bear, maxell UDXLII From Nagra Dolby Cro2 NI-356", Transfer And Mastering By Jim Blackwood, With Listening Assistance And Track/Flac By Jamie Waddell; fixed version in circulation
        "We now return our souls to the creator,
        as we stand on the edge of eternal darkness.
        Let our chant fill the void
        in order that others may know.
        In the land of the night
        the ship of the sun
        is drawn by the grateful dead."

        -- Egyptian Book of the Dead

The Grateful Dead
at the base of the Great Pyramid
September 16, 1978

Recorded in "KHAFRE'S TEMPLE NEAR SPHINX,
TOTAL ECLIPSE OF THE MOON, 23º "  - Bear

"Maxell UDXLII from Nagra Dolby CRo2 NI-356"

first tape laseled "reel #1"
second tape labeled "reel #2"

Transfer and Masterig By Jim Blackwood,
with listening assistance and track/flac by Jamie Waddell
Exactly as the tape sounds.
24 bit 96 kHz FLAC

Photo from the show by Richard Arridge

-Missing some songs and Fire is cut.  We chose to patch NOTHING.
-a whole reels worth of music is missing
whether a casette or reel was recorded is unknown
-complete Hamza El Din + ASYSoC..  it's beautiful

With honor and pride,
these legendary tapes  are made available for your pleasure
by a project  **GEMS**    www.shnflac.net      July 2010



Play these Really Loud, you won't believe your ears.

Notes:
-- This file set is 16 bit

Set One
01. Bertha >
02. Good Lovin
03. Candyman
04. Looks Like Rain
05. Row Jimmy
06. El Paso
07. Ramble On Rose
08. New Minglewood Blues
09. Deal

Set Two
10. Hamza El Din
    accompianied by the Abu Simbel Youth Society of Cairo >
11. Olin Arageed >
12. Fire on the / Mountain >
13. Aiko - Aiko
14. I Need a Miracle >
15. All Over Now
          [missing]Sunrise
                   Shakedown Street->
                   Drums->
                   Space->
                   Truckin->[missing]
16. Stella Blue >
17. Around and Around
18. Crowd
19. One More Saturday Night

" I'm sure i saw the Sphinx smile! " Richard Arridge
Please check out his website of the Egypt Shows
http://www.ukrockfestivals.com/egyptph2.htm

    length     expanded size    cdr  WAVE problems  fmt   ratio  filename
     7:34.48       80198540 B   ---   --   ---xx   flac  0.4729  gd1978-09-16.BEAR.gems.track.01.flac
     7:50.66       83063276 B   ---   --   ---xx   flac  0.4973  gd1978-09-16.BEAR.gems.track.02.flac
     7:05.23       75024140 B   ---   --   ---xx   flac  0.4489  gd1978-09-16.BEAR.gems.track.03.flac
     9:56.61      105277916 B   ---   --   ---xx   flac  0.4392  gd1978-09-16.BEAR.gems.track.04.flac
     7:48.63       82703420 B   ---   --   ---xx   flac  0.4568  gd1978-09-16.BEAR.gems.track.05.flac
     4:47.42       50725628 B   ---   --   ---xx   flac  0.4402  gd1978-09-16.BEAR.gems.track.06.flac
     8:38.33       91452860 B   ---   --   ---xx   flac  0.4460  gd1978-09-16.BEAR.gems.track.07.flac
     7:02.42       74539628 B   ---   --   ---xx   flac  0.4862  gd1978-09-16.BEAR.gems.track.08.flac
     6:57.06       73572956 B   ---   --   ---xx   flac  0.5127  gd1978-09-16.BEAR.gems.track.09.flac
    21:05.63      223294220 B   ---   --   ---xx   flac  0.3947  gd1978-09-16.BEAR.gems.track.10.flac
    16:15.52      172112348 B   ---   --   ---xx   flac  0.4281  gd1978-09-16.BEAR.gems.track.11.flac
    13:21.13      141327020 B   ---   --   ---xx   flac  0.4793  gd1978-09-16.BEAR.gems.track.12.flac
     8:10.23       86490140 B   ---   --   ---xx   flac  0.4646  gd1978-09-16.BEAR.gems.track.13.flac
     6:11.61       65587916 B   ---   --   ---xx   flac  0.5037  gd1978-09-16.BEAR.gems.track.14.flac
     7:17.56       77218556 B   ---   --   ---xx   flac  0.5006  gd1978-09-16.BEAR.gems.track.15.flac
     8:42.02       92085548 B   ---   --   ---xx   flac  0.4616  gd1978-09-16.BEAR.gems.track.16.flac
     8:14.71       87308636 B   ---   --   ---xx   flac  0.5144  gd1978-09-16.BEAR.gems.track.17.flac
     1:39.34       17543612 B   ---   --   ---xx   flac  0.3827  gd1978-09-16.BEAR.gems.track.18.flac
     6:18.54       66806252 B   ---   --   ---xx   flac  0.4971  gd1978-09-16.BEAR.gems.track.19.flac
   164:59.63     1746332612 B                            0.4597  (19 files)





ffp
gd1978-09-16.BEAR.gems.track.01.flac:d5f450192bbb9f0670736a22123e2de4
gd1978-09-16.BEAR.gems.track.02.flac:e598da7c75ddcf600b5de84fd8a89203
gd1978-09-16.BEAR.gems.track.03.flac:3d243ab5f9142d2979ad26be5042f3af
gd1978-09-16.BEAR.gems.track.04.flac:d2893edb831cd295634d91f7e86e4d52
gd1978-09-16.BEAR.gems.track.05.flac:1222ca69011b45853233123b5137300a
gd1978-09-16.BEAR.gems.track.06.flac:92ee386f233e8b11b87ff4d2ade49d89
gd1978-09-16.BEAR.gems.track.07.flac:8d4f6df220e6b865e1225447eb3fe767
gd1978-09-16.BEAR.gems.track.08.flac:d0e5daf4d0e092eb986335526969c300
gd1978-09-16.BEAR.gems.track.09.flac:5a8a8042cd1bfcc8e1f7746a8f1b9826
gd1978-09-16.BEAR.gems.track.10.flac:753a32a6b49e6303ee16ca9072a8d047
gd1978-09-16.BEAR.gems.track.11.flac:c0de3fdcb598a716394a32ef3b8f70da
gd1978-09-16.BEAR.gems.track.12.flac:fd5cd39ea10970483a8dbdc7499a3930
gd1978-09-16.BEAR.gems.track.13.flac:d134f60822d89a488fd2beb44406e4bd
gd1978-09-16.BEAR.gems.track.14.flac:2dfb9a43be5092a594e743da3d5f3454
gd1978-09-16.BEAR.gems.track.15.flac:f3e88f35bd21cf68cebc7f66e7e709aa
gd1978-09-16.BEAR.gems.track.16.flac:c574e4f7a4fbc6dc9326f5a644e0529d
gd1978-09-16.BEAR.gems.track.17.flac:10cdeab7befe234892ff71fc34721011
gd1978-09-16.BEAR.gems.track.18.flac:4d2cc856f1e4598ead1eb8ce31a6314a
gd1978-09-16.BEAR.gems.track.19.flac:c94a271efee5f3bdffc0aa021299cac3
a85d2020eafee030b742ecab18577ffc *gd1978-09-16.BEAR.gems.track.01.flac
22d091324e25e63291b35b96f07256e1 *gd1978-09-16.BEAR.gems.track.02.flac
4785999f17b8d6dde7ca3a7ba6607bce *gd1978-09-16.BEAR.gems.track.03.flac
30944f98bf6ae045e70400f193500e9d *gd1978-09-16.BEAR.gems.track.04.flac
9dfbee12692d8295ace62ff39481c0c9 *gd1978-09-16.BEAR.gems.track.05.flac
ef47591244a8716e79e7fed5d87f0c2a *gd1978-09-16.BEAR.gems.track.06.flac
e430cd59185cd9e2eb6693fac9d45bac *gd1978-09-16.BEAR.gems.track.07.flac
7798cc5a5360c15b1c10eceaa42dc080 *gd1978-09-16.BEAR.gems.track.08.flac
67122e2765b37fddc3518900e8e25066 *gd1978-09-16.BEAR.gems.track.09.flac
f77ded32db1bc0a54fe670256cc55e55 *gd1978-09-16.BEAR.gems.track.10.flac
8654702e5675a2421fc28f19442e7c43 *gd1978-09-16.BEAR.gems.track.11.flac
f784d36941f679b0114feff2dd860943 *gd1978-09-16.BEAR.gems.track.12.flac
7fab4aab5c0245de5a3ec456be0c7d62 *gd1978-09-16.BEAR.gems.track.13.flac
e3c5ce4d737e2c853ca47e86835202a9 *gd1978-09-16.BEAR.gems.track.14.flac
4a4fbc1f2df43add818dddb8012401ff *gd1978-09-16.BEAR.gems.track.15.flac
1add3087bbfe95fb72a66dc49d6e5d1b *gd1978-09-16.BEAR.gems.track.16.flac
93b92e7b7d35a646f348d7458bc69498 *gd1978-09-16.BEAR.gems.track.17.flac
a89da91f162ac829618f27412d2fdb2b *gd1978-09-16.BEAR.gems.track.18.flac
73cfd867ac10a5a02dbdae19e61df41b *gd1978-09-16.BEAR.gems.track.19.flac

Comments
Other Sources (comments)
SBD Reel > DAT > Montego II... (4) flac16 ; Recording Info:... (0) flac16 ; Lineage: 2... (0) flac16 ; Original Lineage:... (0) flac16 ; Matrix 3 Source... (0) DTS-Audio-CD 5.1 Mix ;... (0) flac16 ; 2 x Sony ecm 280... (0) flac24 ;Recorded in... (0) flac16 ; Source: Aud FOB,... (0) flac24 ; Recorded in... (0) flac16 ; Recorded in... (0) flac16 ; Matrix 3 Source... (0) DTS-Audio-CD 5.1 Mix; -... (0) flac16/48kHz; 5.1 LPCM... (0)
Date User Comment
02/07/2018 norm fixed text
"We now return our souls to the creator,
as we stand on the edge of eternal darkness.
Let our chant fill the void
in order that others may know.
In the land of the night
the ship of the sun
is drawn by the grateful dead."

-- Egyptian Book of the Dead

The Grateful Dead
at the base of the Great Pyramid
September 16, 1978

Recorded in "KHAFRE'S TEMPLE NEAR SPHINX,
TOTAL ECLIPSE OF THE MOON, 23º " - Bear

"Maxell UDXLII from Nagra Dolby CRo2 NI-356"

first tape laseled "reel #1"
second tape labeled "reel #2"

Transfer and Masterig By Jim Blackwood,
with listening assistance and track/flac by Jamie Waddell
Exactly as the tape sounds.
24 bit 96 kHz FLAC

Photo from the show by Richard Arridge

-Missing some songs and Fire is cut. We chose to patch NOTHING.
-a whole reels worth of music is missing
whether a casette or reel was recorded is unknown
-complete Hamza El Din + ASYSoC.. it's beautiful
-This is 140932 24 -> 16 bit, Feb 2018

With honor and pride,
these legendary tapes are made available for your pleasure
by a project **GEMS** www.shnflac.net July 2010



Play these Really Loud, you won't believe your ears.


Set One
01. Bertha >
02. Good Lovin
03. Candyman
04. Looks Like Rain
05. Row Jimmy
06. El Paso
07. Ramble On Rose
08. New Minglewood Blues
09. Deal

Set Two
10. Hamza El Din
accompianied by the Abu Simbel Youth Society of Cairo >
11. Olin Arageed >
12. Fire on the / Mountain >
13. Aiko - Aiko
14. I Need a Miracle >
15. All Over Now
[missing]Sunrise
Shakedown Street->
Drums->
Space->
Truckin->[missing]
16. Stella Blue >
17. Around and Around
18. Crowd
19. One More Saturday Night

" I'm sure i saw the Sphinx smile! " Richard Arridge
Please check out his website of the Egypt Shows
http://www.ukrockfestivals.com/egyptph2.htm


length expanded size cdr WAVE problems fmt ratio filename
7:34.48 80198540 B --- -- ---xx flac 0.4729 gd1978-09-16.bear.gems.01.flac
7:50.66 83063276 B --- -- ---xx flac 0.4974 gd1978-09-16.bear.gems.02.flac
7:05.23 75024140 B --- -- ---xx flac 0.4490 gd1978-09-16.bear.gems.03.flac
9:56.61 105277916 B --- -- ---xx flac 0.4392 gd1978-09-16.bear.gems.04.flac
7:48.63 82703420 B --- -- ---xx flac 0.4569 gd1978-09-16.bear.gems.05.flac
4:47.42 50725628 B --- -- ---xx flac 0.4404 gd1978-09-16.bear.gems.06.flac
8:38.33 91452860 B --- -- ---xx flac 0.4461 gd1978-09-16.bear.gems.07.flac
7:02.42 74539628 B --- -- ---xx flac 0.4863 gd1978-09-16.bear.gems.08.flac
6:57.06 73572956 B --- -- ---xx flac 0.5128 gd1978-09-16.bear.gems.09.flac
21:05.63 223294220 B --- -- ---xx flac 0.3947 gd1978-09-16.bear.gems.10.flac
16:15.52 172112348 B --- -- ---xx flac 0.4281 gd1978-09-16.bear.gems.11.flac
13:21.13 141327020 B --- -- ---xx flac 0.4793 gd1978-09-16.bear.gems.12.flac
8:10.23 86490140 B --- -- ---xx flac 0.4647 gd1978-09-16.bear.gems.13.flac
6:11.61 65587916 B --- -- ---xx flac 0.5038 gd1978-09-16.bear.gems.14.flac
7:17.56 77218556 B --- -- ---xx flac 0.5007 gd1978-09-16.bear.gems.15.flac
8:42.02 92085548 B --- -- ---xx flac 0.4617 gd1978-09-16.bear.gems.16.flac
8:14.71 87308636 B --- -- ---xx flac 0.5145 gd1978-09-16.bear.gems.17.flac
1:39.34 17543612 B --- -- ---xx flac 0.3832 gd1978-09-16.bear.gems.18.flac
6:18.54 66806252 B --- -- ---xx flac 0.4972 gd1978-09-16.bear.gems.19.flac
164:59.63 1746332612 B 0.4598 (19 files)

fixed md5
77f1dc3fd41088a4a1680c5362143aba *gd1978-09-16.bear.gems.01.flac
be36da530e2cc0010d24f9af4ae51d84 *gd1978-09-16.bear.gems.02.flac
e006502c03fce70ba3116346849af28c *gd1978-09-16.bear.gems.03.flac
f1a42079e21851e1da1756491b79614f *gd1978-09-16.bear.gems.04.flac
5178e5307c5a8242e803b851c9c93f93 *gd1978-09-16.bear.gems.05.flac
c8a1daf228392d68a85ee8f3205726be *gd1978-09-16.bear.gems.06.flac
a01e7bd4824cd4dc7cf3557885ce9f66 *gd1978-09-16.bear.gems.07.flac
1e84db147e322cfcb5199c579b63ad0b *gd1978-09-16.bear.gems.08.flac
ed2eaef98272009a772fdc9198bf0451 *gd1978-09-16.bear.gems.09.flac
0908bb69df09e968e5c2d2d4cd6d6b55 *gd1978-09-16.bear.gems.10.flac
ff1fece2223114e6ca14a30d748633a3 *gd1978-09-16.bear.gems.11.flac
94714d3ef7db8543601e76037d1bc101 *gd1978-09-16.bear.gems.12.flac
ff0c7c8c1b5829b2694231e88ee6c589 *gd1978-09-16.bear.gems.13.flac
25f75b108ffb24d5e305f4b8c52d0c51 *gd1978-09-16.bear.gems.14.flac
0091592804e1ec7143f49a97ac9168b7 *gd1978-09-16.bear.gems.15.flac
0d85dac67fd505c36128ae736e5ba7ce *gd1978-09-16.bear.gems.16.flac
4591c7693399e7d3d65ac43c5b09a58f *gd1978-09-16.bear.gems.17.flac
59bf007d64e313070af067d9a2293d8c *gd1978-09-16.bear.gems.18.flac
5cad53eda9e94258697a7450184ea102 *gd1978-09-16.bear.gems.19.flac

fixed ffp
gd1978-09-16.bear.gems.01.flac:7fd9b36bba81edeea0b8bee710c58419
gd1978-09-16.bear.gems.02.flac:c527d374f7464f557118b896359ee3dd
gd1978-09-16.bear.gems.03.flac:06d8e2caaec07a7df800472e7151260e
gd1978-09-16.bear.gems.04.flac:8550bcf161e98ff328317a96bd39f948
gd1978-09-16.bear.gems.05.flac:e3fd3ab124a26006a709421f224e07e8
gd1978-09-16.bear.gems.06.flac:f7989ad53f86e1d98427158e586da3fd
gd1978-09-16.bear.gems.07.flac:f5bbb092682b80840b69a96421b5da16
gd1978-09-16.bear.gems.08.flac:cb62e61f801b8226a87de9953299c197
gd1978-09-16.bear.gems.09.flac:635e9a6c96af7fe766d138faa0792a19
gd1978-09-16.bear.gems.10.flac:e8da7865b1ac8033fb20b782503e41bd
gd1978-09-16.bear.gems.11.flac:cec543c7514e49346127bf1a0a7ff814
gd1978-09-16.bear.gems.12.flac:12d5f7e7003d39ecd766daf5df736adf
gd1978-09-16.bear.gems.13.flac:07a1f075dd929e4f97a8df38ac1c8d56
gd1978-09-16.bear.gems.14.flac:37ce4ec489afd06155cf4aa8016a114d
gd1978-09-16.bear.gems.15.flac:40e65ebc10143d4bf59ad53838f382cf
gd1978-09-16.bear.gems.16.flac:b029c6398aaad26ac8a45b9cf800fbff
gd1978-09-16.bear.gems.17.flac:8985ec4c6d31d2d381425a008ebf5cdb
gd1978-09-16.bear.gems.18.flac:b3fdbeb3801d5ffe99a0ef355b87a9bc
gd1978-09-16.bear.gems.19.flac:6ea76ffaaaf0125d394a494e31e91669
02/07/2018 Wharfrat73 I felt that this fix needed a new ID due to it being something that changed the entire fileset.
etreedb.org
For administrative requests email contact@etreedb.org
This website written by Tom H Anderson and maintained by the etreedb.org community.

Cached: Wed, 16 Oct 2019 17:34:12 EDT