Grateful Dead 04/06/78
Curtis Hixon Convention Hall, Tampa, FL
Source Summary
flac16; Source: sbd > master reel > pcm; Transfer: Sony SL-10 > Sony PCM-601ESD > Behringer Ultramatch Pro > Tascam DA-3000 > wav 16/44.1; Lineage: wav > Adobe Audition 1.5 > iZotope RX 6 Advanced > iZotope Ozone 5 Advanced > CD Wave > TLH > Flac 16; edited and mastered SIRMick January 2018
Grateful Dead
Curtis Hixon Convention Hall
Tampa, FL
04/6/1978


Source: sbd > master reel  > pcm
Transfer: Sony SL-10 > Sony PCM-601ESD > Behringer Ultramatch Pro > Tascam DA-3000 > wav 16/44.1
Lineage: wav > Adobe Audition 1.5 > iZotope RX 6 Advanced > iZotope Ozone 5 Advanced > CD Wave > TLH > Flac 16


Set I

01   Bertha >
02   Good Lovin'
03   Dire Wolf
04   Me And My Uncle >
05   Big River
06   Friend Of The Devil
07   Passenger
08   Candyman
09   Lazy Lightnin' >
10    Supplication


Set II

01   tuning
02   Samson And Delilah
03   It Must Have Been The Roses
04   Estimated Prophet >
05   He's Gone >
06   Drums >
07   The Other One >
08   Wharf Rat >
09   Around And Around

encore

10   U.S. Blues


Notes:

- The whole of "Bertha" has been patched on from shnid 18510 - Thank you Bob Wagner and David minches.
- There were a number of small dropouts and some digital noise due to the age of the tape which have been patched with shnid 81307 - Charlie to the rescue.
- There is some static present in the last four tracks of Set II but I have been able to reduce it substantially.



Thanks to Charlie Miller for providing this source and doing the transfer


edited and mastered
SIRMick
January 2018


shntool output:

    length     expanded size    cdr  WAVE problems  fmt   ratio  filename
     7:00.62       74233868 B   ---   --   ---xx   flac  0.5655  gd1978-04-06s1t01.flac
     6:23.19       67605932 B   ---   --   ---xx   flac  0.6082  gd1978-04-06s1t02.flac
     5:22.28       56866700 B   ---   --   ---xx   flac  0.5526  gd1978-04-06s1t03.flac
     3:04.71       32624636 B   ---   --   ---xx   flac  0.6012  gd1978-04-06s1t04.flac
     7:19.00       77439644 B   ---   --   ---xx   flac  0.5690  gd1978-04-06s1t05.flac
    10:02.28      106258700 B   ---   --   ---xx   flac  0.5422  gd1978-04-06s1t06.flac
     6:08.10       64938764 B   ---   --   ---xx   flac  0.5895  gd1978-04-06s1t07.flac
    10:01.70      106181084 B   ---   --   ---xx   flac  0.5077  gd1978-04-06s1t08.flac
     3:28.19       36735932 B   ---   --   ---xx   flac  0.5761  gd1978-04-06s1t09.flac
     4:35.65       48662924 B   ---   --   ---xx   flac  0.5869  gd1978-04-06s1t10.flac
     2:53.57       30651308 B   ---   --   ---xx   flac  0.4277  gd1978-04-06s2t01.flac
    10:53.27      115252748 B   ---   --   ---xx   flac  0.5499  gd1978-04-06s2t02.flac
     8:45.57       92744108 B   ---   --   ---xx   flac  0.4922  gd1978-04-06s2t03.flac
    12:30.04      132309452 B   ---   --   ---xx   flac  0.5693  gd1978-04-06s2t04.flac
    12:31.61      132619916 B   ---   --   ---xx   flac  0.5204  gd1978-04-06s2t05.flac
     7:24.47       78432188 B   ---   --   ---xx   flac  0.5458  gd1978-04-06s2t06.flac
    15:56.61      168781916 B   ---   --   ---xx   flac  0.5471  gd1978-04-06s2t07.flac
    11:33.68      122405180 B   ---   --   ---xx   flac  0.5069  gd1978-04-06s2t08.flac
     9:14.21       97775036 B   ---   --   ---xx   flac  0.5498  gd1978-04-06s2t09.flac
     5:55.27       62685548 B   ---   --   ---xx   flac  0.5846  gd1978-04-06s2t10.flac
   161:06.52     1705205584 B                            0.5464  (20 files)


ffp
gd1978-04-06s1t01.flac:598cb97216f268f410cc55a1cc6ff179
gd1978-04-06s1t02.flac:9630005fb3abd275fa58774a10b3d117
gd1978-04-06s1t03.flac:2808581db083652b8918864296851b56
gd1978-04-06s1t04.flac:d9d06a1151869d9d3c4d7b7324e63a83
gd1978-04-06s1t05.flac:9c6cfcdf1d3c5e7ea1da9b717f6edd58
gd1978-04-06s1t06.flac:3837f063ab50414b5a66504329d11291
gd1978-04-06s1t07.flac:bbfdccd5f33825801daca0ffd5228fef
gd1978-04-06s1t08.flac:41e11ac52653ac870e2fdbd0376afdf4
gd1978-04-06s1t09.flac:b49ffb620d08f03158f2bbf17ca2306a
gd1978-04-06s1t10.flac:eef3fd7265261a08043660f6ea4d0098
gd1978-04-06s2t01.flac:dd6f068a8b54ea03dd8f767aeb84840b
gd1978-04-06s2t02.flac:72cffd882d1df85c68cc75bc54c633ad
gd1978-04-06s2t03.flac:79ead4f730425c552cbbceb64b1a38f9
gd1978-04-06s2t04.flac:90858aadbcd22dc7065bfd7ccf1e3c1c
gd1978-04-06s2t05.flac:988186095161b330b46d9c09f1e9a7e1
gd1978-04-06s2t06.flac:72d95e9dfb171f985d38bd9b3d450c0d
gd1978-04-06s2t07.flac:978281f639af532d9b6667e7c0c7a20b
gd1978-04-06s2t08.flac:1227be9ac0f111d88d88713b66372b6e
gd1978-04-06s2t09.flac:beee3b4c4d290492156f72de52607c2b
gd1978-04-06s2t10.flac:1ed93ea31e27a45c62254e2cba46a89f
765161bc8ed925b23b8e0d2806b619f1 *gd1978-04-06s1t01.flac
eda888712504df64fb78e00dd4855c8d *gd1978-04-06s1t02.flac
9d34c643ae6eaa724e4a5e1ce07d2e7d *gd1978-04-06s1t03.flac
2aa2e08370de1376f2c12bd6eb7572c8 *gd1978-04-06s1t04.flac
993eb441d651de5b0ac4b0f73a11b236 *gd1978-04-06s1t05.flac
689ce62fbad5af0d8358efbd8fc813c1 *gd1978-04-06s1t06.flac
87c89e4adb07062868aeeb8a5c6716ea *gd1978-04-06s1t07.flac
75c9d344cb07b3aa7627b97642207f1c *gd1978-04-06s1t08.flac
d62125efbd73d61c4456eb1ce395bcba *gd1978-04-06s1t09.flac
38d630cc00e5368fbe2406c622035b1c *gd1978-04-06s1t10.flac
1df7990639182e3867e1fa4a43a5ad40 *gd1978-04-06s2t01.flac
b705f0d012dc3dd43b560559a03301b3 *gd1978-04-06s2t02.flac
7f771b5f327cdc123da80aef4c1b3c20 *gd1978-04-06s2t03.flac
b5922469c393bd588da52f0f3170e7ae *gd1978-04-06s2t04.flac
e8e9f374dce3ee3e1189043814e7406d *gd1978-04-06s2t05.flac
e737661b0051d707ffa5d3d7e311c53e *gd1978-04-06s2t06.flac
2d2f0dc9a4c3d2fe6a4cb7ead73be254 *gd1978-04-06s2t07.flac
630355f2fcedfa7288dfa881e47852ef *gd1978-04-06s2t08.flac
db76dfa38e3a3e7a3dc92350320128f8 *gd1978-04-06s2t09.flac
01347ee47448c16947f3f6ae69b50fee *gd1978-04-06s2t10.flac

Comments
etreedb.org
For administrative requests email contact@etreedb.org
This website written by Tom H Anderson and maintained by the etreedb.org community.

Cached: Wed, 18 Sep 2019 12:36:56 EDT