Grateful Dead 04/07/78
The Sportatorium, Pembroke Pines, FL
Source # 140736
Entered by Matt Vernon
Checksums ffp , flac-md5
Disc Counts 0 / 0
Media Size
Uncompressed: 1.7 GB (1830200492 bytes)
Date Circulated
Date Added
01/20/2018
01/20/2018
Source Summary
flac16; Source: sbd > master reel > pcm; Transfer: Sony SL-10 > Sony PCM-601ESD > Behringer Ultramatch Pro > Tascam DA-3000 > wav 16/44.1; Lineage: wav > Adobe Audition 1.5 > iZotope RX 6 Advanced > iZotope Ozone 5 Advanced > CD Wave > TLH > Flac 16; edited and mastered SIRMick January 2018
Grateful Dead
Sportatorium
Pembroke Pines, FL
04/7/1978


Source: sbd > master reel  > pcm
Transfer: Sony SL-10 > Sony PCM-601ESD > Behringer Ultramatch Pro > Tascam DA-3000 > wav 16/44.1
Lineage: wav > Adobe Audition 1.5 > iZotope RX 6 Advanced > iZotope Ozone 5 Advanced > CD Wave > TLH > Flac 16




Set I

01   banter from Phil
02   The Promised Land
03   Sugaree
04   tuning
05   Cassidy
06   Tennessee Jed
07   Mama Tried >
08   Mexicali Blues
09   Peggy-O
10   "Take a step back"
11   New Minglewood Blues
12   Loser
13   The Music Never Stopped


Set II

01   tuning
02   Jack Straw
03   Weir's deer story/tuning
04   Ship Of Fools
05   Good Lovin'
06   Terrapin Station >
07   Playing In The Band >
08   Drums >
09   Not Fade Away >
10   Black Peter >
11   Playing In The Band (reprise)

encore

12   Johnny B. Goode


Notes:

- I removed dozens of pops and clicks from the first 2 minutes or so of Set I. I also had to patch a considerable number of small dropouts in the same section, I used shnid 83715.  In fact there were dropouts scattered throughout the rest of show. NFA had quite a few problems and in total about 5 minutes wasn't useable. These occured because of the age of the tape.
- The encore break was over 7 1/2 minutes so I've shortened it.


Thanks to Charlie Miller for providing this source and doing the transfer.



edited and mastered
SIRMick
January 2018


shntool output:

    length     expanded size    cdr  WAVE problems  fmt   ratio  filename
     0:24.67        4391228 B   ---   --   ---xx   flac  0.4504  gd1978-04-07s1t01.flac
     5:17.63       56067020 B   ---   --   ---xx   flac  0.5877  gd1978-04-07s1t02.flac
    11:49.41      125164076 B   ---   --   ---xx   flac  0.5228  gd1978-04-07s1t03.flac
     2:55.38       30959420 B   ---   --   ---xx   flac  0.3895  gd1978-04-07s1t04.flac
     6:31.59       69111212 B   ---   --   ---xx   flac  0.4825  gd1978-04-07s1t05.flac
    10:39.00      112719644 B   ---   --   ---xx   flac  0.4857  gd1978-04-07s1t06.flac
     2:38.51       27991196 B   ---   --   ---xx   flac  0.5223  gd1978-04-07s1t07.flac
     4:01.54       42639452 B   ---   --   ---xx   flac  0.5043  gd1978-04-07s1t08.flac
     9:36.04      101615852 B   ---   --   ---xx   flac  0.4760  gd1978-04-07s1t09.flac
     1:30.09       15897212 B   ---   --   ---xx   flac  0.4092  gd1978-04-07s1t10.flac
     7:37.38       80704220 B   ---   --   ---xx   flac  0.4971  gd1978-04-07s1t11.flac
     8:39.43       91652780 B   ---   --   ---xx   flac  0.4695  gd1978-04-07s1t12.flac
     8:31.69       90302732 B   ---   --   ---xx   flac  0.5365  gd1978-04-07s1t13.flac
     1:51.54       19707452 B   ---   --   ---xx   flac  0.3875  gd1978-04-07s2t01.flac
     6:48.12       71999468 B   ---   --   ---xx   flac  0.5064  gd1978-04-07s2t02.flac
     2:33.32       27064508 B   ---   --   ---xx   flac  0.3877  gd1978-04-07s2t03.flac
     9:25.31       99738956 B   ---   --   ---xx   flac  0.4395  gd1978-04-07s2t04.flac
     8:14.18       87183980 B   ---   --   ---xx   flac  0.5004  gd1978-04-07s2t05.flac
    11:15.19      119114732 B   ---   --   ---xx   flac  0.4911  gd1978-04-07s2t06.flac
     9:30.33      100625660 B   ---   --   ---xx   flac  0.5061  gd1978-04-07s2t07.flac
    11:11.67      118522028 B   ---   --   ---xx   flac  0.4487  gd1978-04-07s2t08.flac
    10:31.57      111442508 B   ---   --   ---xx   flac  0.5122  gd1978-04-07s2t09.flac
    10:28.17      110819228 B   ---   --   ---xx   flac  0.4636  gd1978-04-07s2t10.flac
     4:42.26       49805996 B   ---   --   ---xx   flac  0.5170  gd1978-04-07s2t11.flac
     6:08.19       64959932 B   ---   --   ---xx   flac  0.4992  gd1978-04-07s2t12.flac
   172:55.21     1830200492 B                            0.4887  (25 files)


ffp
gd1978-04-07s1t01.flac:c18be8a6e5f904fcddd9f16572c45d57
gd1978-04-07s1t02.flac:7c1c29b4fd715b9e972a358288ef0446
gd1978-04-07s1t03.flac:dec92f0986d802ff556645dd034e8bbe
gd1978-04-07s1t04.flac:86a8f183bcbd2c8738a427f206e48355
gd1978-04-07s1t05.flac:37d7f169ab1f375535abfd7eca6c8bb8
gd1978-04-07s1t06.flac:78de694cb0b23018602d5208df8d723a
gd1978-04-07s1t07.flac:f4d56acc5cee34724d26436da023ff62
gd1978-04-07s1t08.flac:bb8016110a9b8368d727ca626b3844e7
gd1978-04-07s1t09.flac:cb2bb21d26fd3feeeed700b53b735670
gd1978-04-07s1t10.flac:803be420f6ac6140ec68e9fabdf3afcf
gd1978-04-07s1t11.flac:f0929a9ae66c0ada22b345c526568bc4
gd1978-04-07s1t12.flac:3a67eac0f371209aa2b2728e3dc6cdf3
gd1978-04-07s1t13.flac:7319274c15df4cf527eea4800cbeacb9
gd1978-04-07s2t01.flac:061f0190acc9dcfbce01ba889faea858
gd1978-04-07s2t02.flac:896b48e703ac9b359a333428b7e926f3
gd1978-04-07s2t03.flac:9f739899d4e6312e67ec7f98f181bf95
gd1978-04-07s2t04.flac:bf25d406f74e0059531e6e4b96b93c7e
gd1978-04-07s2t05.flac:2e47b6d25ae405d0c592fccc7ed9db63
gd1978-04-07s2t06.flac:f2073537d4407886adae5b84639c0d9e
gd1978-04-07s2t07.flac:62c64d6ae99a3c486c04bd3470ca4667
gd1978-04-07s2t08.flac:30bbed31031f5cccdf838ab80723b1df
gd1978-04-07s2t09.flac:f78314ede00ba7e70cf5c403cf5a16c0
gd1978-04-07s2t10.flac:921b2873cee5334864d8895c054d028b
gd1978-04-07s2t11.flac:a0602314b9b21c6c91c8e644a77930cd
gd1978-04-07s2t12.flac:a3f2de4a1659a7a77d062fc63735404b
bf265942ee582c30737c8274d4d848ea *gd1978-04-07s1t01.flac
4bdfe56a0030b7f908c0679fe3d30f6c *gd1978-04-07s1t02.flac
c28dbb219ffff7f36f486429eb6b0dbb *gd1978-04-07s1t03.flac
f6188cae2aed2db1f3de3dbfb22ceb73 *gd1978-04-07s1t04.flac
423810d43ca73475659cef8123e4b1c7 *gd1978-04-07s1t05.flac
64cbe7056c4f2f4178a720543ce625e6 *gd1978-04-07s1t06.flac
83db1029110dfc6a114f42c0fe25672d *gd1978-04-07s1t07.flac
58e4accd7082a9f145b3717ccf3eaa19 *gd1978-04-07s1t08.flac
798d651a28094c67305b209e7c6b5b24 *gd1978-04-07s1t09.flac
1bbf347853081828bc8fd2c749e6636a *gd1978-04-07s1t10.flac
83d1752fe3007827351185503e0141bf *gd1978-04-07s1t11.flac
a3bc360982c786a7442ff43ca3ca25f1 *gd1978-04-07s1t12.flac
7e874293ac69f3fca9ebd13c934cc0a2 *gd1978-04-07s1t13.flac
b03a6dc37d33bae1ea92235b12730a5c *gd1978-04-07s2t01.flac
e0dcccf88318177f52716aa086c3c186 *gd1978-04-07s2t02.flac
03b5a2ac6fd032b2f75ebc3167747ab9 *gd1978-04-07s2t03.flac
b7a39251229582f587753c2a6399fdb5 *gd1978-04-07s2t04.flac
8b5f699b288d96da58e2a5d5b31e502f *gd1978-04-07s2t05.flac
2cc10aab9b5636633bd1688442bb2e8d *gd1978-04-07s2t06.flac
6e3d0e8e4bbbcc5007eb803834717815 *gd1978-04-07s2t07.flac
5dd5559ec0cba90c670cbd7fb5949b56 *gd1978-04-07s2t08.flac
7a6fc022df723e13ef8a54f350d79e6b *gd1978-04-07s2t09.flac
4fb5b2ead597d27d92d6604a7cc693e6 *gd1978-04-07s2t10.flac
2f371d716f53045ba0017125cd7d3081 *gd1978-04-07s2t11.flac
6f4b3ff5811100e39ad8a2364f631665 *gd1978-04-07s2t12.flac

Comments
Other Sources (comments)
7" Two Track Reel@ 7 1/2... (2) flac16 ; Recording Info:... (0)
Date User Comment
etreedb.org
For administrative requests email contact@etreedb.org
This website written by Tom H Anderson and maintained by the etreedb.org community.

Cached: Wed, 18 Sep 2019 12:34:08 EDT