Grateful Dead 04/08/78
Veterans Memorial Coliseum, Jacksonville, FL
Source Summary
flac24; Source: SBD > Master Rreel > Beta Hifi > Beta Hifi; Transfer: Beta Hifi > Tascam DA-3000 (DSF 1-bit/5.8 MHz) > wav 24/96; Lineage: wav 24/96 > Adobe Audition 1.5 > iZotope RX 6 Advanced > iZotope Ozone 5 Advanced > CD Wave > TLH > Flac 24; edited and mastered SIRMick
Grateful Dead
Veterans Memorial Coliseum
Jacksonville, FL
04/8/1978


Source: SBD > Master Rreel > Beta Hifi > Beta Hifi
Transfer: Beta Hifi > Tascam DA-3000 (DSF 1-bit/5.8 MHz) > wav 24/96
Lineage: wav 24/96 > Adobe Audition 1.5 > iZotope RX 6 Advanced > iZotope Ozone 5 Advanced > CD Wave > TLH > Flac 24


Set I

01   Mississippi Half-Step Uptown Toodeloo
02   Me And My Uncle >
03   Big River
04   They Love Each Other
05   Looks Like Rain
06   Deal
07   El Paso
08   It Must Have Been The Roses
09   Lazy Lightnin' >
10   Supplication


Set II

01   Samson And Delilah
02   Scarlet Begonias >
03   Fire On The Mountain
04   Estimated Prophet >
05   Eyes Of The World >
06   Drums >
07   Space >
08   Sugar Magnolia

encore

09   One More Saturday Night



Notes:

- Small patch in "They Love Each Other" to cover a skip
- Patch in "Eyes Of The World" 3:33.5-3:47.1

Source used shnid 83716 -  Thanks Charlie



Thanks to Charlie Miller for providing this source and doing the transfer.


edited and mastered
SIRMick
January 2018


shntool output:

    length     expanded size    cdr  WAVE problems  fmt   ratio  filename
    12:43.720     439902764 B   cxx   --   ---xx   flac  0.5891  gd1978-04-08s1t01.flac
     3:05.720     106974764 B   cxx   --   ---xx   flac  0.6064  gd1978-04-08s1t02.flac
     7:14.480     250260524 B   cxx   --   ---xx   flac  0.5989  gd1978-04-08s1t03.flac
     8:58.947     310433324 B   cxx   --   ---xx   flac  0.5752  gd1978-04-08s1t04.flac
     9:36.187     331883564 B   cxx   --   ---xx   flac  0.5791  gd1978-04-08s1t05.flac
     6:37.267     228825644 B   cxx   --   ---xx   flac  0.6128  gd1978-04-08s1t06.flac
     6:32.387     226014764 B   cxx   --   ---xx   flac  0.5744  gd1978-04-08s1t07.flac
     9:29.147     327828524 B   cxx   --   ---xx   flac  0.5692  gd1978-04-08s1t08.flac
     3:44.627     129385004 B   cxx   --   ---xx   flac  0.6183  gd1978-04-08s1t09.flac
     5:24.707     187031084 B   cxx   --   ---xx   flac  0.6211  gd1978-04-08s1t10.flac
     8:48.827     304604204 B   cxx   --   ---xx   flac  0.6155  gd1978-04-08s2t01.flac
    11:35.173     400419884 B   cxx   --   ---xx   flac  0.6174  gd1978-04-08s2t02.flac
    14:23.693     497487404 B   cxx   --   ---xx   flac  0.6127  gd1978-04-08s2t03.flac
    11:48.000     407808044 B   cxx   --   ---xx   flac  0.6060  gd1978-04-08s2t04.flac
    12:00.107     414781484 B   cxx   --   ---xx   flac  0.6058  gd1978-04-08s2t05.flac
    15:16.787     528069164 B   cxx   --   ---xx   flac  0.5927  gd1978-04-08s2t06.flac
     6:06.560     211138604 B   cxx   --   ---xx   flac  0.5870  gd1978-04-08s2t07.flac
    12:13.827     422684204 B   cxx   --   ---xx   flac  0.6120  gd1978-04-08s2t08.flac
     5:32.720     191646764 B   cxx   --   ---xx   flac  0.6163  gd1978-04-08s2t09.flac
   171:12.880    5917179716 B                            0.5998  (19 files)


1bdce5c99bca564d42ba48b158fc833d *gd1978-04-08s1t01.flac
ff642ec8851e59cc17fffb24b040f125 *gd1978-04-08s1t02.flac
52f1c4208d2c389284821cd540acede6 *gd1978-04-08s1t03.flac
2965efd195fa7c4f5531adde49afe111 *gd1978-04-08s1t04.flac
d582d6203577425fc482ac75f03fbb87 *gd1978-04-08s1t05.flac
49d6e9b771c840a71f0b5aabc7dabb54 *gd1978-04-08s1t06.flac
e9fe6f9c2761fd413e2b9fb7806b0f84 *gd1978-04-08s1t07.flac
58e5c8f582d1eb119a8b12cdfe3bf9bc *gd1978-04-08s1t08.flac
0fe2fb954c9ba1f721fdddeb7f8e8077 *gd1978-04-08s1t09.flac
00c4a2f617d63961ff8aa198a86e8650 *gd1978-04-08s1t10.flac
c499d8e230bb335c8a751f943f0df667 *gd1978-04-08s2t01.flac
752087045cd8b0b68eb1a31685b81a7a *gd1978-04-08s2t02.flac
fc51246ca687ac843ce4c88dcca812d1 *gd1978-04-08s2t03.flac
71bf097603414a50a5cf180600daeb09 *gd1978-04-08s2t04.flac
a5994dd775a19ed3e64fed5f672c4740 *gd1978-04-08s2t05.flac
c2f2c8f74fbe6ab80e7f0e6c4728d41a *gd1978-04-08s2t06.flac
65152c542db4013a7aa913842f387be7 *gd1978-04-08s2t07.flac
92089cde9c8f4b50c67cb51bd1943820 *gd1978-04-08s2t08.flac
8e56580059d9d2b48cc1bed8bd4de12d *gd1978-04-08s2t09.flac
ffp
gd1978-04-08s1t01.flac:e300e0cc3b83c0490c64e9b3c5293137
gd1978-04-08s1t02.flac:246e7eeeff41313026fc2431d7bbe180
gd1978-04-08s1t03.flac:bcbc848fc493e827e894873c3bab6bff
gd1978-04-08s1t04.flac:d3b6e776bd5a99f4c1070306bc2edacd
gd1978-04-08s1t05.flac:89a0153e92b4d8012f3dfd6e573297b9
gd1978-04-08s1t06.flac:87f024d64fb9cde3bd1d35c63899accd
gd1978-04-08s1t07.flac:5e8b01dc72437ee8be151efe0b31a8a1
gd1978-04-08s1t08.flac:bc91613e831eb311286e8b79e4fb3c3b
gd1978-04-08s1t09.flac:e594e688fe7ae96585965275ade5374d
gd1978-04-08s1t10.flac:eb86f33b76ba699207e755c988660d4e
gd1978-04-08s2t01.flac:b0011d9497b85653ccf4ffba4682be97
gd1978-04-08s2t02.flac:20186d2a033034c7b9fd042233b70c14
gd1978-04-08s2t03.flac:7835fb028546c91afb185ded79ad63db
gd1978-04-08s2t04.flac:99c40fa5c8fb4a852ac5b3f1ffb130e1
gd1978-04-08s2t05.flac:845faaa0522d1be29aa812df0c8e19a9
gd1978-04-08s2t06.flac:ab608f8cf6de8a6f2d0abb74742931c8
gd1978-04-08s2t07.flac:b5962b350635100dd0a7d606705df7d0
gd1978-04-08s2t08.flac:af8cf7e5c496a0d7c004b2ce220016b0
gd1978-04-08s2t09.flac:8f6855d5b6be4f798d2a8547f7ebb32d

Comments
etreedb.org
For administrative requests email contact@etreedb.org
This website written by Tom H Anderson and maintained by the etreedb.org community.

Cached: Sat, 19 Oct 2019 15:21:00 EDT