Grateful Dead 04/10/78
Fox Theater, Atlanta, GA
Source Summary
flac16; Source: sbd > master reel > pcm; Transfer: Sony SL-10 > Sony PCM-601ESD > Behringer Ultramatch Pro > Tascam DA-3000 > wav 16/44.1; Lineage: wav > Adobe Audition 1.5 > iZotope RX 6 Advanced > iZotope Ozone 5 Advanced > CD Wave > TLH > Flac 16; edited and mastered SIRMickJanuary 2018
Grateful Dead
Fox Theatre
Atlanta, GA
04/10/1978


Source: sbd > master reel  > pcm
Transfer: Sony SL-10 > Sony PCM-601ESD > Behringer Ultramatch Pro > Tascam DA-3000 > wav 16/44.1
Lineage: wav > Adobe Audition 1.5 > iZotope RX 6 Advanced > iZotope Ozone 5 Advanced > CD Wave > TLH > Flac 16



Set I

01   tuning
02   The Promised Land
03   Brown Eyed Women
04   It's All Over Now
04   Peggy-O
05   Cassidy
06   Dire Wolf
07   El Paso
08   Weir's lumberjack story
09   Row Jimmy
10   Passenger
11   Weir's deer story
12   Candyman
13   The Music Never Stopped


Set II

01   tuning
02   Jack Straw
03   Ship Of Fools
04   Dancing In The Street >
05   Drums >
06   Franklin's Tower >
07   Black Peter >
08   Around And Around

encore

09   U.S. Blues




Notes:

- D C Offset removed.
- There were dozens of small dropouts, most less than one second, which have occured because of the age of the tape. They have been patched with shnid 108665 - Thank you Charlie.
- There were also two larger problems, these are cuts that are present on all circulating soundboards.  There is  a cut in "The Music Never Stopped" with about 12 seconds missing and the other is in "Franklin's Tower" with approximately 23 seconds missing.  These has been patched with shnid 81262 - Thank you Alan Zimmerman and David Minches.


Thanks to Charlie Miller for providing this source and doing the transfer.


edited and mastered
SITRMick
January 2018


shntool output:

    length     expanded size    cdr  WAVE problems  fmt   ratio  filename
     0:33.43        5922380 B   ---   --   ---xx   flac  0.4402  gd1978-04-10s1t01.flac
     5:12.47       55147388 B   ---   --   ---xx   flac  0.6031  gd1978-04-10s1t02.flac
     7:10.72       76021388 B   ---   --   ---xx   flac  0.5538  gd1978-04-10s1t03.flac
     8:37.65       91351724 B   ---   --   ---xx   flac  0.6022  gd1978-04-10s1t04.flac
    10:26.44      110529932 B   ---   --   ---xx   flac  0.5515  gd1978-04-10s1t05.flac
     7:01.36       74349116 B   ---   --   ---xx   flac  0.5823  gd1978-04-10s1t06.flac
     4:42.08       49763660 B   ---   --   ---xx   flac  0.6080  gd1978-04-10s1t07.flac
     5:10.56       54815756 B   ---   --   ---xx   flac  0.5805  gd1978-04-10s1t08.flac
     1:49.47       19338188 B   ---   --   ---xx   flac  0.4632  gd1978-04-10s1t09.flac
    10:34.41      111934076 B   ---   --   ---xx   flac  0.5873  gd1978-04-10s1t10.flac
     5:47.15       61246124 B   ---   --   ---xx   flac  0.6459  gd1978-04-10s1t11.flac
     2:00.33       21245660 B   ---   --   ---xx   flac  0.4653  gd1978-04-10s1t12.flac
     8:16.66       87649676 B   ---   --   ---xx   flac  0.5813  gd1978-04-10s1t13.flac
     9:44.56      103149356 B   ---   --   ---xx   flac  0.6406  gd1978-04-10s1t14.flac
     2:25.38       25667420 B   ---   --   ---xx   flac  0.4287  gd1978-04-10s2t01.flac
     7:03.21       74666636 B   ---   --   ---xx   flac  0.6181  gd1978-04-10s2t02.flac
     7:42.66       81652076 B   ---   --   ---xx   flac  0.5646  gd1978-04-10s2t03.flac
    12:00.71      127175036 B   ---   --   ---xx   flac  0.6338  gd1978-04-10s2t04.flac
    15:37.35      165369164 B   ---   --   ---xx   flac  0.5769  gd1978-04-10s2t05.flac
    16:30.50      174753644 B   ---   --   ---xx   flac  0.6087  gd1978-04-10s2t06.flac
    11:50.63      125392220 B   ---   --   ---xx   flac  0.5888  gd1978-04-10s2t07.flac
     9:35.57      101564108 B   ---   --   ---xx   flac  0.6010  gd1978-04-10s2t08.flac
     5:48.13       61417820 B   ---   --   ---xx   flac  0.6415  gd1978-04-10s2t09.flac
   175:44.68     1860122548 B                            0.5916  (23 files)


ffp
gd1978-04-10s1t01.flac:32a75ace9c0c8fd57ca226e9cde7554f
gd1978-04-10s1t02.flac:c564d171a010ad031094774ad261a4d5
gd1978-04-10s1t03.flac:166526d71ad70b6d6f63aacf55a22707
gd1978-04-10s1t04.flac:7c787f08c038df15e0a7dc28bd63f001
gd1978-04-10s1t05.flac:5358975aecae1033bccc9f1f71f1b105
gd1978-04-10s1t06.flac:8349662bfeacb61c8ec028ec35664673
gd1978-04-10s1t07.flac:8c23a4388f62cccf9e07c001a03f3b97
gd1978-04-10s1t08.flac:63784d97acc4dc975089d569ff194e2d
gd1978-04-10s1t09.flac:d5c8887e2ac27fb9ddf07a9c6f8fc2e7
gd1978-04-10s1t10.flac:d87133b27758790cc19af5ca731da40f
gd1978-04-10s1t11.flac:2dd5597bba28a69582ad0c917aa19dcc
gd1978-04-10s1t12.flac:d65338f8d88c5dd1ccfb1cc7f09e19a6
gd1978-04-10s1t13.flac:42ecab3be9ec3fd58a7f294076ebd126
gd1978-04-10s1t14.flac:a41a706c2ccc9b3b24ac1efc2507e97f
gd1978-04-10s2t01.flac:ee4a6c38b85e206e25b9277c375fcfe7
gd1978-04-10s2t02.flac:b9e5b8b1d14e7955849d8066429fb9ad
gd1978-04-10s2t03.flac:057510ef46da3f77501fc30cd6bf532b
gd1978-04-10s2t04.flac:799ab334a41ad55857d64aa33082d376
gd1978-04-10s2t05.flac:16e12b466b61f36cbf983c046d94a23a
gd1978-04-10s2t06.flac:d0e19f0d8235fd589ed0ee5012fdea98
gd1978-04-10s2t07.flac:b7791c9730e3dd23fa41aa83131d8295
gd1978-04-10s2t08.flac:69bb9a25393c47cb487cd15b8ed9d363
gd1978-04-10s2t09.flac:1f223c28fc2bd9ed7d852a88de043e0c
3b9a7d2b9137bf9355c42457a19b0e9a *gd1978-04-10s1t01.flac
e95a90879d9837a39fa229e9c106dde3 *gd1978-04-10s1t02.flac
901acef102a4d7bde9b77a2df511f5fd *gd1978-04-10s1t03.flac
f72b0c37f72bf6b51986fb58e1f55cfb *gd1978-04-10s1t04.flac
52a4174f8eff3cf8693ba51e6a36e4c9 *gd1978-04-10s1t05.flac
d21968449400b40c83df5dc2a29c93ea *gd1978-04-10s1t06.flac
7a07a47f44e3316438c2fde25c564996 *gd1978-04-10s1t07.flac
fa5fb037b1d1fb4c8760c4fc388e416e *gd1978-04-10s1t08.flac
6e207b71901f5b6f5737566ce0f9be6f *gd1978-04-10s1t09.flac
e7f50e7f8ec0df82c543401725af5044 *gd1978-04-10s1t10.flac
f07b4b1ca08ec624950d25bb6a46543e *gd1978-04-10s1t11.flac
f55674d1e9594a52118874b46ce0ede1 *gd1978-04-10s1t12.flac
a75e46cea0fa0e774cc42848824f51d3 *gd1978-04-10s1t13.flac
2270a16ed30f9a44136948e909607786 *gd1978-04-10s1t14.flac
b802773995a8afa32752fe4c7e05d968 *gd1978-04-10s2t01.flac
cb51bb3e05fd54ab07efba6067c41026 *gd1978-04-10s2t02.flac
824802a45463cd53a8b3337eda4b1ff3 *gd1978-04-10s2t03.flac
e41a489d4876c68b5be679cb9be3f4f4 *gd1978-04-10s2t04.flac
a3d9f4e2a03cbc89279661f9430c8bc0 *gd1978-04-10s2t05.flac
73f5e08ba20b1606f2d40baf95b7ac4d *gd1978-04-10s2t06.flac
893dd94b1751cda76e5407c3af6fb5c1 *gd1978-04-10s2t07.flac
87f1fce9526ee23324a9223371cf2f33 *gd1978-04-10s2t08.flac
b07479bcd1aebad53fe0a1b127823b8a *gd1978-04-10s2t09.flac

Comments
etreedb.org
For administrative requests email contact@etreedb.org
This website written by Tom H Anderson and maintained by the etreedb.org community.

Cached: Sun, 20 Oct 2019 01:49:32 EDT