Grateful Dead 04/08/78
Veterans Memorial Coliseum, Jacksonville, FL
Source Summary
flac16; Source: SBD > Master Rreel > Beta Hifi > Beta Hifi; Transfer: Beta Hifi > Tascam DA-3000 (DSF 1-bit/5.8 MHz) > wav 24/96; Lineage: wav 24/96 > Adobe Audition 1.5 > iZotope RX 6 Advanced > iZotope Ozone 5 Advanced > CD Wave > TLH > Flac 24; edited and mastered SIRMick
Grateful Dead
Veterans Memorial Coliseum
Jacksonville, FL
04/8/1978


Source: SBD > Master Rreel > Beta Hifi > Beta Hifi
Transfer: Beta Hifi > Tascam DA-3000 (DSF 1-bit/5.8 MHz) > wav 24/96
Lineage: wav 24/96 > Adobe Audition 1.5 > iZotope RX 6 Advanced > iZotope Ozone 5 Advanced > CD Wave > TLH > Flac 24

Notes:
-- This file set is 16 bit

Set I

01   Mississippi Half-Step Uptown Toodeloo
02   Me And My Uncle >
03   Big River
04   They Love Each Other
05   Looks Like Rain
06   Deal
07   El Paso
08   It Must Have Been The Roses
09   Lazy Lightnin' >
10   Supplication


Set II

01   Samson And Delilah
02   Scarlet Begonias >
03   Fire On The Mountain
04   Estimated Prophet >
05   Eyes Of The World >
06   Drums >
07   Space >
08   Sugar Magnolia

encore

09   One More Saturday Night



Notes:

- Small patch in "They Love Each Other" to cover a skip
- Patch in "Eyes Of The World" 3:33.5-3:47.1

Source used shnid 83716 -  Thanks Charlie



Thanks to Charlie Miller for providing this source and doing the transfer.


edited and mastered
SIRMick
January 2018


shntool output:
    length     expanded size    cdr  WAVE problems  fmt   ratio  filename
    12:43.54      134720252 B   ---   --   ---xx   flac  0.4676  gd1978-04-08s1t01.flac
     3:05.54       32761052 B   ---   --   ---xx   flac  0.5041  gd1978-04-08s1t02.flac
     7:14.36       76642316 B   ---   --   ---xx   flac  0.4871  gd1978-04-08s1t03.flac
     8:58.71       95070236 B   ---   --   ---xx   flac  0.4311  gd1978-04-08s1t04.flac
     9:36.14      101639372 B   ---   --   ---xx   flac  0.4429  gd1978-04-08s1t05.flac
     6:37.20       70077884 B   ---   --   ---xx   flac  0.5232  gd1978-04-08s1t06.flac
     6:32.29       69217052 B   ---   --   ---xx   flac  0.4249  gd1978-04-08s1t07.flac
     9:29.11      100397516 B   ---   --   ---xx   flac  0.4117  gd1978-04-08s1t08.flac
     3:44.47       39624188 B   ---   --   ---xx   flac  0.5364  gd1978-04-08s1t09.flac
     5:24.53       57278300 B   ---   --   ---xx   flac  0.5396  gd1978-04-08s1t10.flac
     8:48.62       93285068 B   ---   --   ---xx   flac  0.5221  gd1978-04-08s2t01.flac
    11:35.13      122628620 B   ---   --   ---xx   flac  0.5247  gd1978-04-08s2t02.flac
    14:23.52      152355548 B   ---   --   ---xx   flac  0.5046  gd1978-04-08s2t03.flac
    11:48.00      124891244 B   ---   --   ---xx   flac  0.4928  gd1978-04-08s2t04.flac
    12:00.08      127026860 B   ---   --   ---xx   flac  0.5030  gd1978-04-08s2t05.flac
    15:16.59      161721212 B   ---   --   ---xx   flac  0.4559  gd1978-04-08s2t06.flac
     6:06.42       64661228 B   ---   --   ---xx   flac  0.4406  gd1978-04-08s2t07.flac
    12:13.62      129447068 B   ---   --   ---xx   flac  0.5157  gd1978-04-08s2t08.flac
     5:32.54       58691852 B   ---   --   ---xx   flac  0.5239  gd1978-04-08s2t09.flac
   171:12.66     1812136868 B                            0.4842  (19 files)



ffp
gd1978-04-08s1t01.flac:4e3f6eb3fbed33d937a7a585551b8ada
gd1978-04-08s1t02.flac:9d5450ef49fd8cfdb3acc53d1a5cd1a6
gd1978-04-08s1t03.flac:38b98dab4b9c4af9b538495257b0b998
gd1978-04-08s1t04.flac:113317d54d26a3c6d64e07d43f18e208
gd1978-04-08s1t05.flac:b77f88079713d0fad6d2918e7d09b56c
gd1978-04-08s1t06.flac:6dafb14e1c5ae36ebb481758e7fafefd
gd1978-04-08s1t07.flac:d5e5495e72ba883aa16d3b469fb1df6a
gd1978-04-08s1t08.flac:cf09e48ff88dc2e086318aa4fb7a8cff
gd1978-04-08s1t09.flac:c451df328966c5a8f9bf596b2c4ec813
gd1978-04-08s1t10.flac:fe738fb01c6dd5029bee2bf56e2a103e
gd1978-04-08s2t01.flac:c1ae323240df128c18287e4ce834034a
gd1978-04-08s2t02.flac:8ed2b03bcfe14203ffba0c449136e106
gd1978-04-08s2t03.flac:c5262377dcfe8393f3f3ed1f8f84d442
gd1978-04-08s2t04.flac:47c8e77d78eb56ee5f8e7dbd41c0a7a2
gd1978-04-08s2t05.flac:17ab0de8db60bde49acdb6f74c6c1704
gd1978-04-08s2t06.flac:dbdc95359999cd30674aacf98423849e
gd1978-04-08s2t07.flac:8cd9de0233ebaaf8d966e13addaa32d1
gd1978-04-08s2t08.flac:22d06a7f97dbed6ab6cb6e1af21c4039
gd1978-04-08s2t09.flac:3335448a5518f3be35718a9ef27fb315
b7df6443b4cf9afc2fc88a07f977b490 *gd1978-04-08s1t01.flac
ccbc52f95ab915aeaa2d18e9d873919a *gd1978-04-08s1t02.flac
f312f6345aecf6844fffd7c1dbf8c36a *gd1978-04-08s1t03.flac
353bead4a06c329bf9c6d2e19d908db5 *gd1978-04-08s1t04.flac
0c86f1f07a4899153c064bfd1b889765 *gd1978-04-08s1t05.flac
ac0bf29a7a5cfd4745b692217adcab16 *gd1978-04-08s1t06.flac
d849987bbddbff8c2527e2410ea508ce *gd1978-04-08s1t07.flac
6eb1f46a852001376c91b9e99f5b0d8c *gd1978-04-08s1t08.flac
b18dd8b54a35cf70e62acabb6ff7f608 *gd1978-04-08s1t09.flac
4014fcddcf6f40e6fd0452b60f9dee51 *gd1978-04-08s1t10.flac
1aeb36eb661dd7ee9ae1a32331649aab *gd1978-04-08s2t01.flac
d8b7d3081d2d8755438a763c0757c594 *gd1978-04-08s2t02.flac
0ac25480ce131142b9f87fb5f3e3438d *gd1978-04-08s2t03.flac
ae40d1807eb265fbeb9936ace7950123 *gd1978-04-08s2t04.flac
7dd532983e70754d5448798100927637 *gd1978-04-08s2t05.flac
79cc93e273ad05773f96c2d545add187 *gd1978-04-08s2t06.flac
34c782ae095d77d0ee57b53e7820e372 *gd1978-04-08s2t07.flac
7710d2f024f04c60422fb4785158aa87 *gd1978-04-08s2t08.flac
b4c67cc587f217dd6936a1e7142511c7 *gd1978-04-08s2t09.flac

Comments
etreedb.org
For administrative requests email contact@etreedb.org
This website written by Tom H Anderson and maintained by the etreedb.org community.

Cached: Sat, 19 Oct 2019 15:20:00 EDT