Grateful Dead 09/16/78
Gizah Sound and Light Theater, Cairo, Egypt
Source Summary
flac24; Recorded in "KHAFRE'S TEMPLE NEAR SPHINX, TOTAL ECLIPSE OF THE MOON, 23∫ " - Bear, "Maxell UDXLII from Nagra Dolby CRo2 NI-356", Transfer and; Mastering By Jim Blackwood, with listening assistance and track/flac by Jamie Waddell; This is 108845 with channels inverted; fixed version of source ID 108845
        "We now return our souls to the creator,
        as we stand on the edge of eternal darkness.
        Let our chant fill the void
        in order that others may know.
        In the land of the night
        the ship of the sun
        is drawn by the grateful dead."

        -- Egyptian Book of the Dead

The Grateful Dead
at the base of the Great Pyramid
September 16, 1978

Recorded in "KHAFRE'S TEMPLE NEAR SPHINX,
TOTAL ECLIPSE OF THE MOON, 23º "  - Bear

"Maxell UDXLII from Nagra Dolby CRo2 NI-356"

first tape laseled "reel #1"
second tape labeled "reel #2"

Transfer and Masterig By Jim Blackwood,
with listening assistance and track/flac by Jamie Waddell
Exactly as the tape sounds.
24 bit 96 kHz FLAC

Photo from the show by Richard Arridge

-Missing some songs and Fire is cut.  We chose to patch NOTHING.
-a whole reels worth of music is missing
whether a casette or reel was recorded is unknown
-complete Hamza El Din + ASYSoC..  it's beautiful
-This is 108845 with channels inverted

With honor and pride,
these legendary tapes  are made available for your pleasure
by a project  **GEMS**    www.shnflac.net      July 2010



Play these Really Loud, you won't believe your ears.


Set One
01. Bertha >
02. Good Lovin
03. Candyman
04. Looks Like Rain
05. Row Jimmy
06. El Paso
07. Ramble On Rose
08. New Minglewood Blues
09. Deal

Set Two
10. Hamza El Din
    accompianied by the Abu Simbel Youth Society of Cairo >
11. Olin Arageed >
12. Fire on the / Mountain >
13. Aiko - Aiko
14. I Need a Miracle >
15. All Over Now
          [missing]Sunrise
                   Shakedown Street->
                   Drums->
                   Space->
                   Truckin->[missing]
16. Stella Blue >
17. Around and Around
18. Crowd
19. One More Saturday Night

" I'm sure i saw the Sphinx smile! " Richard Arridge
Please check out his website of the Egypt Shows
http://www.ukrockfestivals.com/egyptph2.htm

    length     expanded size    cdr  WAVE problems  fmt   ratio  filename
     7:34.653     261879956 B   cxx   --   ---xx   flac  0.6036  gd1978-09-16.bear.gems.01.flac
     7:50.872     271222100 B   cxx   --   ---xx   flac  0.6163  gd1978-09-16.bear.gems.02.flac
     7:05.308     244977308 B   cxx   --   ---xx   flac  0.6024  gd1978-09-16.bear.gems.03.flac
     9:56.814     343764836 B   cxx   --   ---xx   flac  0.6006  gd1978-09-16.bear.gems.04.flac
     7:48.838     270050804 B   cxx   --   ---xx   flac  0.6056  gd1978-09-16.bear.gems.05.flac
     4:47.557     165632588 B   cxx   --   ---xx   flac  0.6000  gd1978-09-16.bear.gems.06.flac
     8:38.444     298624076 B   cxx   --   ---xx   flac  0.6031  gd1978-09-16.bear.gems.07.flac
     7:02.558     243393236 B   cxx   --   ---xx   flac  0.6164  gd1978-09-16.bear.gems.08.flac
     6:57.082     240239204 B   cxx   --   ---xx   flac  0.6225  gd1978-09-16.bear.gems.09.flac
    21:05.841     729124748 B   cxx   --   ---xx   flac  0.5893  gd1978-09-16.bear.gems.10.flac
    16:15.694     561999860 B   cxx   --   ---xx   flac  0.5965  gd1978-09-16.bear.gems.11.flac
    13:21.174     461476556 B   cxx   --   ---xx   flac  0.6123  gd1978-09-16.bear.gems.12.flac
     8:10.306     282416444 B   cxx   --   ---xx   flac  0.6089  gd1978-09-16.bear.gems.13.flac
     6:11.812     214163756 B   cxx   --   ---xx   flac  0.6200  gd1978-09-16.bear.gems.14.flac
     7:17.748     252142676 B   cxx   --   ---xx   flac  0.6195  gd1978-09-16.bear.gems.15.flac
     8:42.028     300687956 B   cxx   --   ---xx   flac  0.6091  gd1978-09-16.bear.gems.16.flac
     8:14.943     285087140 B   cxx   --   ---xx   flac  0.6250  gd1978-09-16.bear.gems.17.flac
     1:39.452      57284180 B   cxx   --   ---xx   flac  0.5865  gd1978-09-16.bear.gems.18.flac
     6:18.715     218139812 B   cxx   --   ---xx   flac  0.6193  gd1978-09-16.bear.gems.19.flac
   164:59.838    5702307236 B                            0.6068  (19 files)




46669e95be0026bcf3128fcfbf745593 *gd1978-09-16.bear.gems.01.flac
b3257ccd4ac0c294466c9313b2d4b74a *gd1978-09-16.bear.gems.02.flac
bcf37e2fcc73a6c0ce82eddcde0d3731 *gd1978-09-16.bear.gems.03.flac
b88f2b0ad916b8d2505c0cbed2efc0aa *gd1978-09-16.bear.gems.04.flac
78b853f8fd752340830a76e8330c8d1e *gd1978-09-16.bear.gems.05.flac
0b5cd52777ebbbb458e21911833497ce *gd1978-09-16.bear.gems.06.flac
f455504745499e256d10b74bfb6a6be3 *gd1978-09-16.bear.gems.07.flac
f551eb69621eaa57c2702f9f89049214 *gd1978-09-16.bear.gems.08.flac
cbcdad988fc562e017502a4cfec441d3 *gd1978-09-16.bear.gems.09.flac
7b2a8615ab147b649d2355dd79a421d3 *gd1978-09-16.bear.gems.10.flac
e63ecc21852fc2a0d14b173dd43feee8 *gd1978-09-16.bear.gems.11.flac
0df6aef7d0cf6e80f2f08eea779bd963 *gd1978-09-16.bear.gems.12.flac
dd0683e68c6fc899acb2e7749baae8f0 *gd1978-09-16.bear.gems.13.flac
fe382ec18281ab7729a9c90b561879a8 *gd1978-09-16.bear.gems.14.flac
cacb6530b9b10811ae843810307c621f *gd1978-09-16.bear.gems.15.flac
044b5c39230b1ed4634669069a75a55d *gd1978-09-16.bear.gems.16.flac
35400a502d95908b043f3a41b39149fb *gd1978-09-16.bear.gems.17.flac
8b129fc4af9198f590fb443a3c9d8c5b *gd1978-09-16.bear.gems.18.flac
4101e6272055452c3377d5155332e5e6 *gd1978-09-16.bear.gems.19.flac
ffp
gd1978-09-16.bear.gems.01.flac:1d31bd869ad0a880988b47388a96b451
gd1978-09-16.bear.gems.02.flac:2ac5b306297381075187e38ec350d976
gd1978-09-16.bear.gems.03.flac:4b19fad76dd39bd4752f178908bd6076
gd1978-09-16.bear.gems.04.flac:6cc4efac3299c1b3ead67f31fb82d62a
gd1978-09-16.bear.gems.05.flac:fb9f3bf2efaf257f694a51f758465014
gd1978-09-16.bear.gems.06.flac:70cac1774e062201740138b52663433b
gd1978-09-16.bear.gems.07.flac:d7d3f5890c4493326ca801241edecb4a
gd1978-09-16.bear.gems.08.flac:f2b1385672ce68ab3e94c648954725bb
gd1978-09-16.bear.gems.09.flac:b7997aa5e1bd55bb3f33d983e5c52962
gd1978-09-16.bear.gems.10.flac:4228147a84f90fdb0005681f49f0634b
gd1978-09-16.bear.gems.11.flac:b1f19d81d4454a31789fa9695b589a02
gd1978-09-16.bear.gems.12.flac:350161a39b19bd9b895a73e5a42ed4ff
gd1978-09-16.bear.gems.13.flac:1254306fe50eea8e01f35d5b870ec84c
gd1978-09-16.bear.gems.14.flac:9e0ec70b6e47d5570a2c430016cf563d
gd1978-09-16.bear.gems.15.flac:2f103459f57d766ac4a1ce00d8766603
gd1978-09-16.bear.gems.16.flac:eed81a431be5b9ce6e0809fc4d24ca32
gd1978-09-16.bear.gems.17.flac:097ed75ebaa5f991b856caa1406c81a1
gd1978-09-16.bear.gems.18.flac:ab5e5f8e8b78c7e88e5e3661709f5c8a
gd1978-09-16.bear.gems.19.flac:ce91b6e075a7e87a3f2e3acdb78c7d96

Comments
etreedb.org
For administrative requests email contact@etreedb.org
This website written by Tom H Anderson and maintained by the etreedb.org community.

Cached: Wed, 16 Oct 2019 17:38:07 EDT