Grateful Dead 01/17/78
Sacramento Memorial Auditorium, Sacramento, CA
Source Summary
flac16; Source Info: Bob Menke's Master Audience Cassettes; AKG D224E mics > Sony TC-158SD; Sandy Troy's 1st generation 10" reels @ 7 1/2 ips; Transfer Info: 1st generation Reels (Technics RS-1506) > Apogee Mini Me > Mini DAC > WaveLab 5(.wav 24-bit/96k)> Adobe Audition 3.0 (24/96)> TLH flac2496; 24-bit to 16-bit via dBpoweramp
Grateful Dead
Memorial Auditorium
Sacramento, California
Tuesday January 17, 1978

This is a 16/44 fileset. 24-bit to 16-bit via dBpoweramp

Source Info:
Bob Menke's Master Audience Cassettes; AKG D224E mics > Sony TC-158SD; Sandy Troy's 1st generation 10" reels @ 7 1/2 ips

Transfer Info:
1st generation Reels (Technics RS-1506) > Apogee Mini Me > Mini DAC > WaveLab 5(.wav 24-bit/96k)> Adobe Audition 3.0 (24/96)> TLH flac2496

Notes:
- Thanks to Bob Menke for recording the show
- Thanks to Charlie Miller for the 1st generation source reels
- Thanks to Matt Smith for the transfer
- Levels smoothed
- PA issue with Bob's mic for a minute or so in "Promised Land"
- "Looks Like Rain" is missing
- Jam after "He's Gone" starts with Keith, Billy and Mickey, Keith leaves and Jerry joins and noodles with Billy and Mickey before "Drums"
- Tape flip at the end of "Truckin'", beginning of "Around & Around" is clipped, ~ 30 seconds or so missing
- 1st Audience source in circulation for this date (2/18)
- A very pleasant listen

Mastered by Scott Clugston
February 22, 2018

Set One:
s1 t01 - Crowd/Tuning
s1 t02 - Promised Land
s1 t03 - Dire Wolf
s1 t04 - Crowd/Tuning
s1 t05 - Cassidy
s1 t06 - Loser
s1 txx - Looks Like Rain (missing)
s1 t07 - Row Jimmy
s1 t08 - Crowd/Tuning
s1 t09 - New Minglewood Blues
s1 t10 - It Must Have Been The Roses
s1 t11 - The Music Never Stopped

Set Two:
s2 t01 - Bertha >
s2 t02 - Good Lovin'
s2 t03 - Candyman
s2 t04 - Estimated Prophet >
s2 t05 - He's Gone >
         Jam >
s2 t06 - Drums >
s2 t07 - The Other One >
s2 t08 - Black Peter >
s2 t09 - Truckin'//
s2 t10 - //Around & Around
Encore:
s2 t11 - US Blues



    length     expanded size    cdr  WAVE problems  fmt   ratio  filename
     1:40.68       17799980 B   ---   --   ---xx   flac  0.4840  gd78-01-17 s1 t01 Crowd_Tuning.flac
     4:30.50       47745644 B   ---   --   ---xx   flac  0.5978  gd78-01-17 s1 t02 Promised Land.flac
     4:19.37       45774668 B   ---   --   ---xx   flac  0.5626  gd78-01-17 s1 t03 Dire Wolf.flac
     1:41.10       17839964 B   ---   --   ---xx   flac  0.4841  gd78-01-17 s1 t04 Crowd_Tuning.flac
     4:58.30       52637804 B   ---   --   ---xx   flac  0.5801  gd78-01-17 s1 t05 Cassidy.flac
     8:30.24       90020492 B   ---   --   ---xx   flac  0.5464  gd78-01-17 s1 t06 Loser.flac
     9:19.24       98664092 B   ---   --   ---xx   flac  0.5564  gd78-01-17 s1 t07 Row Jimmy.flac
     1:44.51       18465596 B   ---   --   ---xx   flac  0.4651  gd78-01-17 s1 t08 Crowd_Tuning.flac
     6:55.45       73311884 B   ---   --   ---xx   flac  0.5812  gd78-01-17 s1 t09 New Minglewood Blues.flac
     7:38.55       80920604 B   ---   --   ---xx   flac  0.5303  gd78-01-17 s1 t10 It Must Have Been The Roses.flac
     7:50.33       82985660 B   ---   --   ---xx   flac  0.5870  gd78-01-17 s1 t11 The Music Never Stopped.flac
     6:28.24       68499692 B   ---   --   ---xx   flac  0.6033  gd78-01-17 s2 t01 Bertha.flac
     7:05.38       75059420 B   ---   --   ---xx   flac  0.6025  gd78-01-17 s2 t02 Good Lovin'.flac
     7:44.74       82023692 B   ---   --   ---xx   flac  0.5290  gd78-01-17 s2 t03 Candyman.flac
    13:34.50      143707244 B   ---   --   ---xx   flac  0.5953  gd78-01-17 s2 t04 Estimated Prophet.flac
    23:33.60      249394364 B   ---   --   ---xx   flac  0.5685  gd78-01-17 s2 t05 He's Gone.flac
     2:27.52       26053148 B   ---   --   ---xx   flac  0.5909  gd78-01-17 s2 t06 Drums.flac
    14:26.01      152764796 B   ---   --   ---xx   flac  0.5945  gd78-01-17 s2 t07 The Other One.flac
    12:01.11      127210316 B   ---   --   ---xx   flac  0.5623  gd78-01-17 s2 t08 Black Peter.flac
     9:10.35       97102364 B   ---   --   ---xx   flac  0.6137  gd78-01-17 s2 t09 Truckin'.flac
     9:35.43      101531180 B   ---   --   ---xx   flac  0.6221  gd78-01-17 s2 t10 Around & Around.flac
     5:39.47       59910188 B   ---   --   ---xx   flac  0.6345  gd78-01-17 s2 t11 US Blues.flac
   170:57.37     1809422792 B                            0.5774  (22 files)


ffp
gd78-01-17 s1 t01 Crowd_Tuning.flac:9d38aac2302f778323e4a83a6fe8574b
gd78-01-17 s1 t02 Promised Land.flac:56e322d7068c1776f169cbf7bf9ec30a
gd78-01-17 s1 t03 Dire Wolf.flac:3a8eaf6653721bff58740d3658638701
gd78-01-17 s1 t04 Crowd_Tuning.flac:2e901df29e8b7bc97ed2b8d9e32b9ab1
gd78-01-17 s1 t05 Cassidy.flac:3eb6e1000ed2d597f65dd1909914ecb8
gd78-01-17 s1 t06 Loser.flac:db570566f498c12eea6c39257295457d
gd78-01-17 s1 t07 Row Jimmy.flac:1194103cbbab8c1b8d423172543a0bec
gd78-01-17 s1 t08 Crowd_Tuning.flac:9a15ab1d86e3d2d9c0896d1be36c4914
gd78-01-17 s1 t09 New Minglewood Blues.flac:ce2a3133538b8d97555e97e80a14d0f9
gd78-01-17 s1 t10 It Must Have Been The Roses.flac:10146da3aa959819c2149bc9ec3d805b
gd78-01-17 s1 t11 The Music Never Stopped.flac:3178b645055b5a8ee4692fe7a5afe0ba
gd78-01-17 s2 t01 Bertha.flac:e62fe3f50c88162647c5102540f9f367
gd78-01-17 s2 t02 Good Lovin'.flac:189bd3eb2b333da1308aabb09d09a65f
gd78-01-17 s2 t03 Candyman.flac:a525d380cb279eebad1d5bc5bf9794f8
gd78-01-17 s2 t04 Estimated Prophet.flac:eb1dbec33dbc9b364efd8e1824b2b2c7
gd78-01-17 s2 t05 He's Gone.flac:3d93bc0b324d288906d0d4de6d4b1f75
gd78-01-17 s2 t06 Drums.flac:59a8ab32c83bdf7b74e4c7ec1820d4f6
gd78-01-17 s2 t07 The Other One.flac:7b7907b1c8b13a3af119ec9b19c129b4
gd78-01-17 s2 t08 Black Peter.flac:7da0e41630ff8e34939c9f1713a0c596
gd78-01-17 s2 t09 Truckin'.flac:41ca7f461ea271ff9115609f994da8ef
gd78-01-17 s2 t10 Around & Around.flac:e53a37464c19085602aea0ce46a42232
gd78-01-17 s2 t11 US Blues.flac:dff5d43c59c2bb4c1e2d64836f0c5c57
f1afc8e9b4ddcb30452f2d514b9cafc4 *gd78-01-17 s1 t01 Crowd_Tuning.flac
073dfbf00624bd234e7bbe0806bc29ed *gd78-01-17 s1 t02 Promised Land.flac
ac398a37033aa4481363a888a4d44d71 *gd78-01-17 s1 t03 Dire Wolf.flac
78c429bbb2cbac7daf3671e30c7b6243 *gd78-01-17 s1 t04 Crowd_Tuning.flac
2941172672c056c15ea7313ab53e4422 *gd78-01-17 s1 t05 Cassidy.flac
ed7c88e25ca77b1e5c693c0f7424a369 *gd78-01-17 s1 t06 Loser.flac
bf7546dd81543615a6ced846962f4b78 *gd78-01-17 s1 t07 Row Jimmy.flac
2ae1dc5479b6db7bcba7346479eb47fd *gd78-01-17 s1 t08 Crowd_Tuning.flac
13777f45312dd6615fc4cb6a853a902a *gd78-01-17 s1 t09 New Minglewood Blues.flac
43c977e328c3b891fb49e75843640b09 *gd78-01-17 s1 t10 It Must Have Been The Roses.flac
3c09fa7e3e611326c3222f0585ee6e54 *gd78-01-17 s1 t11 The Music Never Stopped.flac
87c5a0be6a713d45965874e69c272c0f *gd78-01-17 s2 t01 Bertha.flac
f4e71fc0770d38cd3e6bc673228807fc *gd78-01-17 s2 t02 Good Lovin'.flac
298d4fa07edb08c75c9943e4bd214255 *gd78-01-17 s2 t03 Candyman.flac
eb3282dca374f46132fdcacbceec4389 *gd78-01-17 s2 t04 Estimated Prophet.flac
785cd93966ca06cd8dc921f8171b9c1a *gd78-01-17 s2 t05 He's Gone.flac
9cbe04996eb8feac3a017f3153bf2884 *gd78-01-17 s2 t06 Drums.flac
07f916f4d073937ef6b8f9bb455556af *gd78-01-17 s2 t07 The Other One.flac
baf32e3ae85a722dafc7edeedc9a4c8a *gd78-01-17 s2 t08 Black Peter.flac
34aa6723f64bbacaabc32eea18172180 *gd78-01-17 s2 t09 Truckin'.flac
d7deab8a473e7f7c0f076f929e111558 *gd78-01-17 s2 t10 Around & Around.flac
0f085d09ca168473687df560647ffa03 *gd78-01-17 s2 t11 US Blues.flac

Comments
Other Sources (comments)
SBD>MR>C>D>CD>SHN; missing... (0) flac24 ; Source Info: Bob... (0) flac16 ; Source Info:... (0)
Date User Comment
etreedb.org
For administrative requests email contact@etreedb.org
This website written by Tom H Anderson and maintained by the etreedb.org community.

Cached: Tue, 17 Sep 2019 09:20:41 EDT