Grateful Dead 01/17/78
Sacramento Memorial Auditorium, Sacramento, CA
Source Summary
flac24; Source Info: Bob Menke's Master Audience Cassettes; AKG D224E mics > Sony TC-158SD; Sandy Troy's 1st generation 10" reels @ 7 1/2 ips; Transfer Info: 1st generation Reels (Technics RS-1506) > Apogee Mini Me > Mini DAC > WaveLab 5(.wav 24-bit/96k)> Adobe Audition 3.0 (24/96)> TLH flac2496
Grateful Dead
Memorial Auditorium
Sacramento, California
Tuesday January 17, 1978

Source Info:
Bob Menke's Master Audience Cassettes; AKG D224E mics > Sony TC-158SD; Sandy Troy's 1st generation 10" reels @ 7 1/2 ips

Transfer Info:
1st generation Reels (Technics RS-1506) > Apogee Mini Me > Mini DAC > WaveLab 5(.wav 24-bit/96k)> Adobe Audition 3.0 (24/96)> TLH flac2496

Notes:
- Thanks to Bob Menke for recording the show
- Thanks to Charlie Miller for the 1st generation source reels
- Thanks to Matt Smith for the transfer
- Levels smoothed
- PA issue with Bob's mic for a minute or so in "Promised Land"
- "Looks Like Rain" is missing
- Jam after "He's Gone" starts with Keith, Billy and Mickey, Keith leaves and Jerry joins and noodles with Billy and Mickey before "Drums"
- Tape flip at the end of "Truckin'", beginning of "Around & Around" is clipped, ~ 30 seconds or so missing
- 1st Audience source in circulation for this date (2/18)
- A very pleasant listen

Mastered by Scott Clugston
February 22, 2018

Set One:
s1 t01 - Crowd/Tuning
s1 t02 - Promised Land
s1 t03 - Dire Wolf
s1 t04 - Crowd/Tuning
s1 t05 - Cassidy
s1 t06 - Loser
s1 txx - Looks Like Rain (missing)
s1 t07 - Row Jimmy
s1 t08 - Crowd/Tuning
s1 t09 - New Minglewood Blues
s1 t10 - It Must Have Been The Roses
s1 t11 - The Music Never Stopped

Set Two:
s2 t01 - Bertha >
s2 t02 - Good Lovin'
s2 t03 - Candyman
s2 t04 - Estimated Prophet >
s2 t05 - He's Gone >
         Jam >
s2 t06 - Drums >
s2 t07 - The Other One >
s2 t08 - Black Peter >
s2 t09 - Truckin'//
s2 t10 - //Around & Around
Encore:
s2 t11 - US Blues



    length     expanded size    cdr  WAVE problems  fmt   ratio  filename
     1:40.907      58122284 B   cxx   --   ---xx   flac  0.6200  gd78-01-17 s1 t01 Crowd_Tuning.flac
     4:30.667     155904044 B   cxx   --   ---xx   flac  0.6637  gd78-01-17 s1 t02 Promised Land.flac
     4:19.493     149468204 B   cxx   --   ---xx   flac  0.6493  gd78-01-17 s1 t03 Dire Wolf.flac
     1:41.133      58252844 B   cxx   --   ---xx   flac  0.6244  gd78-01-17 s1 t04 Crowd_Tuning.flac
     4:58.400     171878444 B   cxx   --   ---xx   flac  0.6550  gd78-01-17 s1 t05 Cassidy.flac
     8:30.320     293944364 B   cxx   --   ---xx   flac  0.6441  gd78-01-17 s1 t06 Loser.flac
     9:19.320     322168364 B   cxx   --   ---xx   flac  0.6469  gd78-01-17 s1 t07 Row Jimmy.flac
     1:44.680      60295724 B   cxx   --   ---xx   flac  0.6181  gd78-01-17 s1 t08 Crowd_Tuning.flac
     6:55.600     239385644 B   cxx   --   ---xx   flac  0.6553  gd78-01-17 s1 t09 New Minglewood Blues.flac
     7:38.733     264230444 B   cxx   --   ---xx   flac  0.6390  gd78-01-17 s1 t10 It Must Have Been The Roses.flac
     7:50.440     270973718 B   cxx   --   ---xx   flac  0.6574  gd78-01-17 s1 t11 The Music Never Stopped.flac
     6:28.320     223672364 B   cxx   --   ---xx   flac  0.6632  gd78-01-17 s2 t01 Bertha.flac
     7:05.507     245091884 B   cxx   --   ---xx   flac  0.6595  gd78-01-17 s2 t02 Good Lovin'.flac
     7:44.987     267832364 B   cxx   --   ---xx   flac  0.6352  gd78-01-17 s2 t03 Candyman.flac
    13:34.667     469248044 B   cxx   --   ---xx   flac  0.6571  gd78-01-17 s2 t04 Estimated Prophet.flac
    23:33.800     814348844 B   cxx   --   ---xx   flac  0.6475  gd78-01-17 s2 t05 He's Gone.flac
     2:27.693      85071404 B   cxx   --   ---xx   flac  0.6544  gd78-01-17 s2 t06 Drums.flac
    14:26.013     498823724 B   cxx   --   ---xx   flac  0.6566  gd78-01-17 s2 t07 The Other One.flac
    12:01.147     415380524 B   cxx   --   ---xx   flac  0.6463  gd78-01-17 s2 t08 Black Peter.flac
     9:10.467     317068844 B   cxx   --   ---xx   flac  0.6620  gd78-01-17 s2 t09 Truckin'.flac
     9:35.573     331530284 B   cxx   --   ---xx   flac  0.6660  gd78-01-17 s2 t10 Around & Around.flac
     5:39.624     195623456 B   cxx   --   ---xx   flac  0.6689  gd78-01-17 s2 t11 US Blues.flac
   170:57.491    5908315814 B                            0.6522  (22 files)


ffp
gd78-01-17 s1 t01 Crowd_Tuning.flac:97723a3646151d6a5739c284fe75f03b
gd78-01-17 s1 t02 Promised Land.flac:b4414d93c8f0c08a370f4ae02ad22380
gd78-01-17 s1 t03 Dire Wolf.flac:3d2179c6797c44639e4ae5573c08f51f
gd78-01-17 s1 t04 Crowd_Tuning.flac:1bd6ff98324b8da97af84adb7acf7676
gd78-01-17 s1 t05 Cassidy.flac:c77326b66f299cccfa15788cf7f6d09f
gd78-01-17 s1 t06 Loser.flac:abb7fd282d146c121c367952e3c830ba
gd78-01-17 s1 t07 Row Jimmy.flac:67af8c89fd33cb0fe35ec3b2533e2d3a
gd78-01-17 s1 t08 Crowd_Tuning.flac:7bcfc42c1ac7ad8fc889423f1df64c0b
gd78-01-17 s1 t09 New Minglewood Blues.flac:b283692a993a3c8bf58a802c9c473231
gd78-01-17 s1 t10 It Must Have Been The Roses.flac:2737d080042b10b0ede0047a30e2a705
gd78-01-17 s1 t11 The Music Never Stopped.flac:3d5b6b0c530775d721ad421e77f0bc73
gd78-01-17 s2 t01 Bertha.flac:0f48375f594f3d82ff605e865d4a98a1
gd78-01-17 s2 t02 Good Lovin'.flac:c0fd9c38ee967ff02afe6160ed0bb9d9
gd78-01-17 s2 t03 Candyman.flac:8406f0e629e6eb6cd1830ccd33e8ea06
gd78-01-17 s2 t04 Estimated Prophet.flac:876857e87cba401d3415546f26439b79
gd78-01-17 s2 t05 He's Gone.flac:5e8eadcc0fbc682933532fb9b644a9ae
gd78-01-17 s2 t06 Drums.flac:f61a0bc61eddafbba453e8143b88c41a
gd78-01-17 s2 t07 The Other One.flac:03df9191296b8fe2728c8807db05ecba
gd78-01-17 s2 t08 Black Peter.flac:b00bf5afcbb500dd8d3b8298952c2d08
gd78-01-17 s2 t09 Truckin'.flac:8853ddf64ddff83c1aa1f41ef48548f1
gd78-01-17 s2 t10 Around & Around.flac:9851ef6832b9212568ad796ca11e4f63
gd78-01-17 s2 t11 US Blues.flac:96b74e0fedd86938b8e64a4eaa756445
4dfa5525d3f8f319454e7164421d6ddb *gd78-01-17 s1 t01 Crowd_Tuning.flac
7dbca95fe5cdf2680f85ad486c75ddd2 *gd78-01-17 s1 t02 Promised Land.flac
24c56f200b84686857b106c988558cef *gd78-01-17 s1 t03 Dire Wolf.flac
d1cfb67a2d27f4e5fde2fc4d4deb861d *gd78-01-17 s1 t04 Crowd_Tuning.flac
8cc4a9d6857d5f4ac284c5a83305a6cb *gd78-01-17 s1 t05 Cassidy.flac
989ff37e775c6f16c75a7460443a6ba8 *gd78-01-17 s1 t06 Loser.flac
b1bbfd9f3ccffbdfc31c335a22ca0d47 *gd78-01-17 s1 t07 Row Jimmy.flac
e460207c16fd0fcf1f12e6c40db8a991 *gd78-01-17 s1 t08 Crowd_Tuning.flac
0612d4ca09491f0a972c0a2ec9f442f6 *gd78-01-17 s1 t09 New Minglewood Blues.flac
2d2b81ea4e92d255dbeb3a892db7750f *gd78-01-17 s1 t10 It Must Have Been The Roses.flac
81ffe7ee12a68ca2faf9483deb709077 *gd78-01-17 s1 t11 The Music Never Stopped.flac
9824b59f7d62fd120cd66011303cfd5e *gd78-01-17 s2 t01 Bertha.flac
d5524794a12c7c45f5e2011a5e67a279 *gd78-01-17 s2 t02 Good Lovin'.flac
47c4ff2d28fc741dbce16312a9390cfa *gd78-01-17 s2 t03 Candyman.flac
3db81adfea45b78e0e3ff36e04b7029b *gd78-01-17 s2 t04 Estimated Prophet.flac
b4dda2211fb6af4d840b28a6ac71e111 *gd78-01-17 s2 t05 He's Gone.flac
203f3cc57d4de2c6c896b760d43a0a8a *gd78-01-17 s2 t06 Drums.flac
fa8d77fec03db568c3506a27057ad09c *gd78-01-17 s2 t07 The Other One.flac
9b03d8ffd4cdd0aa41add7b583aa6ee3 *gd78-01-17 s2 t08 Black Peter.flac
b84bbf8f7986eca833be0d63cd32b1a0 *gd78-01-17 s2 t09 Truckin'.flac
3e20d3de172c43f0acfe30f382ea8cf9 *gd78-01-17 s2 t10 Around & Around.flac
7f8208cd849c79fc11e22d07571db782 *gd78-01-17 s2 t11 US Blues.flac

Comments
Other Sources (comments)
SBD>MR>C>D>CD>SHN; missing... (0) flac16 ; Source Info: Bob... (0) flac16 ; Source Info:... (0)
Date User Comment
etreedb.org
For administrative requests email contact@etreedb.org
This website written by Tom H Anderson and maintained by the etreedb.org community.

Cached: Tue, 17 Sep 2019 13:25:59 EDT