Grateful Dead 04/11/78
Fox Theater, Atlanta, GA
Source Summary
flac16; Source: SBD Master Reel (7" two track @ 7 1/2 ips - recorded by Betty Cantor) > PCM501ES @ 44.055 kHz - Provided by Tim Dalton; Transfer: PCM > Sony SL-10 > Sony PCM-601ESD > Behringer Ultramatch Pro > Tascam DA-3000 > wav 16-bit/44.1k - Transferred by Charlie Miller; Lineage: wav >Adobe Audition 3 > iZotope RX6 Advanced > iZotope Ozone 5 Advanced > CD Wave > TLH > Flac 16; edited and mastered SIRMick April 2018
Grateful Dead
Fox Theatre
Atlanta, GA
04/11/1978



Source: SBD Master Reel (7" two track @ 7 1/2 ips - recorded by Betty Cantor) > PCM501ES @ 44.055 kHz - Provided by Tim Dalton
Transfer: PCM > Sony SL-10 > Sony PCM-601ESD > Behringer Ultramatch Pro > Tascam DA-3000 > wav 16-bit/44.1k - Transferred by Charlie Miller
Lineage: wav >Adobe Audition 3 > iZotope RX6 Advanced > iZotope Ozone 5 Advanced > CD Wave > TLH > Flac 16



Set I

01   tuning
02   Bertha >
03   Good Lovin'
04   Friend Of The Devil
05   Me And My Uncle >
06   Big River
07   Tennessee Jed
08   Looks Like Rain
09   Brown Eyed Women
10   New Minglewood Blues
11   Deal


Set II

01   tuning
02   Samson And Delilah
03   Scarlet Begonias >
04   Fire On The Mountain
05   Sunrise
06   Terrapin Station >
07   Drums >
08   Space >
09   Iko Iko >
10   Sugar Magnolia

encore

11   Johnny B. Goode


Notes:

- Tim has two copies of this source, both of which were used to put this together.
- There is a dropout in "Terrapin" which occurs in all soundboards in circulation. I crossfaded the two parts together.


Thanks to Tim Dalton for providing this source.

Thanks to Charlie Miller for the transfer.


edited and mastered
SIRMick
April 2018


shntool output:

    length     expanded size    cdr  WAVE problems  fmt   ratio  filename
     0:43.46        7693436 B   ---   --   ---xx   flac  0.4772  gd1978-04-11s101.flac
     6:09.62       65237468 B   ---   --   ---xx   flac  0.6330  gd1978-04-11s102.flac
     5:51.44       62019932 B   ---   --   ---xx   flac  0.6357  gd1978-04-11s103.flac
    10:20.03      109375100 B   ---   --   ---xx   flac  0.5607  gd1978-04-11s104.flac
     3:14.35       34303964 B   ---   --   ---xx   flac  0.6437  gd1978-04-11s105.flac
     6:44.24       71322092 B   ---   --   ---xx   flac  0.6242  gd1978-04-11s106.flac
     9:32.15      100936124 B   ---   --   ---xx   flac  0.6111  gd1978-04-11s107.flac
     8:13.36       87049916 B   ---   --   ---xx   flac  0.5819  gd1978-04-11s108.flac
     6:02.17       63896828 B   ---   --   ---xx   flac  0.6044  gd1978-04-11s109.flac
     7:14.11       76583516 B   ---   --   ---xx   flac  0.6122  gd1978-04-11s110.flac
     7:34.03       80092700 B   ---   --   ---xx   flac  0.6483  gd1978-04-11s111.flac
     1:22.04       14474252 B   ---   --   ---xx   flac  0.4777  gd1978-04-11s201.flac
     8:11.20       86659484 B   ---   --   ---xx   flac  0.6367  gd1978-04-11s202.flac
    12:39.64      134038172 B   ---   --   ---xx   flac  0.6226  gd1978-04-11s203.flac
    11:21.37      120215468 B   ---   --   ---xx   flac  0.6196  gd1978-04-11s204.flac
     4:04.10       43065164 B   ---   --   ---xx   flac  0.5840  gd1978-04-11s205.flac
    11:13.44      118820732 B   ---   --   ---xx   flac  0.6163  gd1978-04-11s206.flac
    21:41.37      229583468 B   ---   --   ---xx   flac  0.5840  gd1978-04-11s207.flac
     1:37.14       17143772 B   ---   --   ---xx   flac  0.5078  gd1978-04-11s208.flac
    10:25.36      110334716 B   ---   --   ---xx   flac  0.6460  gd1978-04-11s209.flac
    10:51.61      114979916 B   ---   --   ---xx   flac  0.6494  gd1978-04-11s210.flac
     4:14.18       44847980 B   ---   --   ---xx   flac  0.6626  gd1978-04-11s211.flac
   169:22.41     1792674200 B                            0.6130  (22 files)


cf475fbf8d764f1405a72bac3ea910d7 *gd1978-04-11s101.flac
bbd1e853f884f0a883d4f41660f05297 *gd1978-04-11s102.flac
c39408536b6bed55f5d4db196d7bf5a9 *gd1978-04-11s103.flac
aac458c0bbbf99df383fcfd7d5cf690d *gd1978-04-11s104.flac
1683e9000b7f6de0d9de27724b0046cb *gd1978-04-11s105.flac
d8ce8f2d6ef02ff97d99ec464f96184d *gd1978-04-11s106.flac
6bc54949facad6494c12ac13f97eef8b *gd1978-04-11s107.flac
0912ec243b04911f3d8682a63c7f6f4f *gd1978-04-11s108.flac
73ee5351a3aab8215f983d0d6df12b2f *gd1978-04-11s109.flac
0370e437bdc79af392a1dd42391057c7 *gd1978-04-11s110.flac
17291879d8c4e7ed08d4b8eb8af660ec *gd1978-04-11s111.flac
8b187c818ca07c3afc167a68da292136 *gd1978-04-11s201.flac
ee2547ca8daf43f233580c62884b32b9 *gd1978-04-11s202.flac
824d688a3ffd79ed7a07b5f3589474c5 *gd1978-04-11s203.flac
d6aac78b23999e35b8d23f26edbf7711 *gd1978-04-11s204.flac
427feaf4a075c97db671bed8b04687fc *gd1978-04-11s205.flac
48cbb48f8dc4a98f27f307c05d50fe63 *gd1978-04-11s206.flac
7e393c15461bf9a902f97950f280e8cd *gd1978-04-11s207.flac
9dc59c63860bf5f178de57da25963df8 *gd1978-04-11s208.flac
4c226f1c2a3fc751d5c847c8bd6ff6c2 *gd1978-04-11s209.flac
85c1a837f35c4b2e955e0fb52d93b024 *gd1978-04-11s210.flac
c9248257cec5a7365cdbdfb2d241a2ba *gd1978-04-11s211.flac
ffp
gd1978-04-11s101.flac:154fb3cfb743b743150cae5f9e84e917
gd1978-04-11s102.flac:22f8d3175a8a5babc59c4c7de45c2c49
gd1978-04-11s103.flac:4ee6bda1c8ec688591b14d16de9d57c5
gd1978-04-11s104.flac:1ed706e6bd3724d9a36483f442b51a61
gd1978-04-11s105.flac:64a49e4d9d30edcba17bc22e398425db
gd1978-04-11s106.flac:177feac6c0783206856125ee54772172
gd1978-04-11s107.flac:20569ace0740d31f62fa5dd03e09587a
gd1978-04-11s108.flac:e1a83fe266b1f04a9620c8ff6d036c1f
gd1978-04-11s109.flac:646f810200b88d0ee92b8d967458ca8d
gd1978-04-11s110.flac:2ed197cafe7a3ff93ba0f0d632b5d44c
gd1978-04-11s111.flac:6c7982074b7e1cc26535ed17ebeb3bbd
gd1978-04-11s201.flac:e3ebb63582a41e8d537c9a55b9303e8e
gd1978-04-11s202.flac:a06a2b59fcc2d115c78eb50c845afabb
gd1978-04-11s203.flac:fb39a5dad75b2a2fb691eaf1cc5eb953
gd1978-04-11s204.flac:fae9059dc1094a40211a1e341fa23196
gd1978-04-11s205.flac:b5957b78a1b63ea80d023adbf24a9893
gd1978-04-11s206.flac:52a3405f8590537141bec4c3296620e2
gd1978-04-11s207.flac:0a32ecc942828cffe86558253704f0d0
gd1978-04-11s208.flac:88b0b8845a29688b860d50962d0b1d44
gd1978-04-11s209.flac:0e7c30d4a6b0a8bb09db6049c1f93eb8
gd1978-04-11s210.flac:fd4c48caed7ac64ae2c90d5195e21d0f
gd1978-04-11s211.flac:312fb98659314b23d99503751c2365c1

Comments
etreedb.org
For administrative requests email contact@etreedb.org
This website written by Tom H Anderson and maintained by the etreedb.org community.

Cached: Sat, 19 Oct 2019 15:25:44 EDT