Grateful Dead 04/12/78
Cameron Indoor Stadium, Duke University, Durham, NC
Source Summary
flac16; Source: SBD Master Reel (7" two track @ 7 1/2 ips - recorded by Betty Cantor) > PCM501ES @ 44.055 kHz - Provided by Tim Dalton; Transfer: PCM > Sony SL-10 > Sony PCM-601ESD > Behringer Ultramatch Pro > Tascam DA-3000 > wav 16-bit/44.1k - Transferred by Charlie Miller; Lineage: wav > Adobe Audition 3 > iZotope RX6 Advanced > iZotope Ozone 5 Advanced > CD Wave > TLH > Flac 16; edited and mastered SIRMick April 2018
Grateful Dead
Cameron Indoor Stadium
Duke University
Durham, NC
04/12/1978



Source: SBD Master Reel (7" two track @ 7 1/2 ips - recorded by Betty Cantor) > PCM501ES @ 44.055 kHz - Provided by Tim Dalton
Transfer: PCM > Sony SL-10 > Sony PCM-601ESD > Behringer Ultramatch Pro > Tascam DA-3000 > wav 16-bit/44.1k - Transferred by Charlie Miller
Lineage: wav > Adobe Audition 3 > iZotope RX6 Advanced > iZotope Ozone 5 Advanced > CD Wave > TLH > Flac 16




Set I

01   Jack Straw
02   Dire Wolf
03   Beat It On Down The Line
04   Peggy-O
05   Mama Tried >
06   Mexicali Blues
07   Funiculi Funicula > "Turn down the house lights, dummy"
08   Row Jimmy
09   New Minglewood Blues
10   Loser
11   Lazy Lightnin' >
12   Supplication


Set II

01   tuning
02   Bertha >
03   Good Lovin'
04   It Must Have Been The Roses
05   Estimated Prophet >
06   Eyes Of The World >
07   Drums >
08   Truckin' >
09   Wharf Rat >
10   Around And Around

encore

11   U.S. Blues



Notes:

- Pitch correction.
- The soundboard vocals are absent during most of "Dire Wolf".  I have therefore, isolated the vocals from shnid 105875 as far as possible and matrixed them with this source.
- Several minor dropouts have been patched with shnid 107156
- Shnid 105875 was also used for the following patches - Thank you Bob Wagner:

"Eyes Of The World" - 8:30-8:57
"Wharf Rat" 10:13- end of track
"Around And Around" 0:00-0:08


Thanks to Tim Dalton for providing this source

Thanks to Charlie miller for the transfer.


This is beautiful music played beautifully.


edited and nastered
SIRMick
April 2018


shntool out:

    length     expanded size    cdr  WAVE problems  fmt   ratio  filename
     6:55.29       73274252 B   ---   --   ---xx   flac  0.5816  gd1978-04-12s1t01.flac
     5:12.06       55050956 B   ---   --   ---xx   flac  0.5692  gd1978-04-12s1t02.flac
     5:27.57       57816908 B   ---   --   ---xx   flac  0.5642  gd1978-04-12s1t03.flac
    10:05.37      106809068 B   ---   --   ---xx   flac  0.5298  gd1978-04-12s1t04.flac
     2:30.14       26492972 B   ---   --   ---xx   flac  0.6283  gd1978-04-12s1t05.flac
     3:57.67       41964428 B   ---   --   ---xx   flac  0.6182  gd1978-04-12s1t06.flac
     1:59.44       21095132 B   ---   --   ---xx   flac  0.5240  gd1978-04-12s1t07.flac
    11:15.35      119152364 B   ---   --   ---xx   flac  0.5749  gd1978-04-12s1t08.flac
     6:03.28       64099100 B   ---   --   ---xx   flac  0.6200  gd1978-04-12s1t09.flac
     9:32.36      100985516 B   ---   --   ---xx   flac  0.5655  gd1978-04-12s1t10.flac
     3:56.07       41646908 B   ---   --   ---xx   flac  0.6354  gd1978-04-12s1t11.flac
     5:48.13       61417820 B   ---   --   ---xx   flac  0.6283  gd1978-04-12s1t12.flac
     3:02.58       32241260 B   ---   --   ---xx   flac  0.3839  gd1978-04-12s2t01.flac
     7:28.54       79154252 B   ---   --   ---xx   flac  0.6530  gd1978-04-12s2t02.flac
     7:14.59       76696412 B   ---   --   ---xx   flac  0.6391  gd1978-04-12s2t03.flac
    10:27.67      110760428 B   ---   --   ---xx   flac  0.5416  gd1978-04-12s2t04.flac
    11:45.12      124390268 B   ---   --   ---xx   flac  0.5998  gd1978-04-12s2t05.flac
    12:13.36      129385916 B   ---   --   ---xx   flac  0.6076  gd1978-04-12s2t06.flac
    26:07.20      276465884 B   ---   --   ---xx   flac  0.5232  gd1978-04-12s2t07.flac
     8:44.19       92478332 B   ---   --   ---xx   flac  0.6315  gd1978-04-12s2t08.flac
    10:31.44      111411932 B   ---   --   ---xx   flac  0.5707  gd1978-04-12s2t09.flac
     9:12.02       97377548 B   ---   --   ---xx   flac  0.6153  gd1978-04-12s2t10.flac
     5:36.48       59383340 B   ---   --   ---xx   flac  0.6404  gd1978-04-12s2t11.flac
   185:08.42     1959550996 B                            0.5808  (23 files)


603263d03eb65f3354c1a7615a72b698 *gd1978-04-12s1t01.flac
a626996596eba898ee2a8130c6b3713f *gd1978-04-12s1t02.flac
9dcdf4972274b55cace88c3862233a00 *gd1978-04-12s1t03.flac
63da63f0eb53075ededd99065972f5f4 *gd1978-04-12s1t04.flac
226dd2ff60eb9d05efc4373e0d929007 *gd1978-04-12s1t05.flac
35cb9965b330f52e10123896f9e108df *gd1978-04-12s1t06.flac
808bdcf29f9828fff822c7c53c450806 *gd1978-04-12s1t07.flac
808e21c1a5ea2745c3f66776013d06ab *gd1978-04-12s1t08.flac
0757cbb146c051a62fc0c8c9dc8e1792 *gd1978-04-12s1t09.flac
1ac16f14eefab38a06527b1997ad770b *gd1978-04-12s1t10.flac
3fd080a3d7a112d70daa0ede7f84f0d9 *gd1978-04-12s1t11.flac
2dcfdf671c83b8d8910dec279a10767f *gd1978-04-12s1t12.flac
6c50a840ae64c5c32f1f906d5eb6a7da *gd1978-04-12s2t01.flac
055c2901bde0bea4efd9a1a842982a45 *gd1978-04-12s2t02.flac
2af96d2fe91cd613a0ef53d46bf5dd88 *gd1978-04-12s2t03.flac
e21c52a1f5224130cfb5b2f505342302 *gd1978-04-12s2t04.flac
b1916217c02b7822431d8c61690945f5 *gd1978-04-12s2t05.flac
6f21442997fe679c8846ca217bea72ca *gd1978-04-12s2t06.flac
82cfedca2ba21badfd2692dbf1b9cfd7 *gd1978-04-12s2t07.flac
31e6743f0ca81529273de1fe27576009 *gd1978-04-12s2t08.flac
fbe419c4e45925a524f73d36ad5dae94 *gd1978-04-12s2t09.flac
f8ccf30028b11d31151b9300259bc10a *gd1978-04-12s2t10.flac
cea89949fac464c8206312e31c31b1a9 *gd1978-04-12s2t11.flac
ffp
gd1978-04-12s1t01.flac:fde2f69fd7606ead5df51a0396d96a57
gd1978-04-12s1t02.flac:3d8f9ad5a0df44e716c03b1553ce6a05
gd1978-04-12s1t03.flac:b24aaff828536ca72bc3fa8d94bed7d0
gd1978-04-12s1t04.flac:40f55ec0765ee558f6b4be5ee6ff5b1f
gd1978-04-12s1t05.flac:f5664cdc48435cbba3f1d1993b9d451a
gd1978-04-12s1t06.flac:4d4d7d2cdac87f262ccbd57097937123
gd1978-04-12s1t07.flac:bac1419bddb904822b732bf2e35acc84
gd1978-04-12s1t08.flac:c466a25573b72a761a89074f8fec3f7b
gd1978-04-12s1t09.flac:20d37cc2f21575ea04118dbfed0e273e
gd1978-04-12s1t10.flac:ff0f9bbd83de88c70e552109f14207df
gd1978-04-12s1t11.flac:63d9a142b31d69f6491312326b459d7f
gd1978-04-12s1t12.flac:6858f5ef19859e684642b5bb28b516f3
gd1978-04-12s2t01.flac:4bcfa6956c991d6ddb477e5e31d8dc42
gd1978-04-12s2t02.flac:24b0e88a7d118979f6e69dce9da06a62
gd1978-04-12s2t03.flac:bcdcbc58c4deef237e03e8c0fdc46da8
gd1978-04-12s2t04.flac:1ef0f2b1a73057ee7b520773716788a4
gd1978-04-12s2t05.flac:c70e5e0374782d2c6d0014cc55f1c3d7
gd1978-04-12s2t06.flac:66098b1dde90b40e6e05d7364711aef4
gd1978-04-12s2t07.flac:c749445cf84683b7a857eb7b8461956d
gd1978-04-12s2t08.flac:6e0efc784b05a2e7203ce117330492c2
gd1978-04-12s2t09.flac:84de9a8d7c411fa074251c1d90bcac0b
gd1978-04-12s2t10.flac:802befff29c264d7c75e8e6c8e08f428
gd1978-04-12s2t11.flac:fa40a651c5660beb7ba7db8da6b6c92c

Comments
etreedb.org
For administrative requests email contact@etreedb.org
This website written by Tom H Anderson and maintained by the etreedb.org community.

Cached: Sat, 19 Oct 2019 15:25:58 EDT