Dickey Betts, Warren Haynes & Allen Woody 04/14/96
The Rock & Roll Hall Of Fame, Cleveland, OH
Source Summary
flac16 44.1khz Soundboard > cd > eac > wav > shn Every single circulating source of this performance is from the same recording. The Schoeps CM 54 Source is the only file set with any detailed lineage and is therefore assumed to be the master recording for this and all other circulating filesets. Thank you to whomever taped it.
Betts, Haynes, Woody
1996-04-14
Rock and Roll Hall of Fame
Cleveland OH

cd > eac > wav > shn

http://db.etree.org/lookup_show.php?shows_key=61382

Intro
Good Time Feeling
Tombstone Eyes
Let Me Ride
In Memory of Elizabeth Reed
Blue Sky
Ramblin' Man
Southbound

4528f8583d17f665a1a56122c6ab9ab4 *1 Introduction.shn
6ea81de58dcb9869aa2b7811fb70bae8 *2 Good Time Feelin'.shn
c0911120b54ebb107dedd9274f0f4aeb *3 Tombstone Eyes.shn
efd37e75c250b168da2ee150f6a77843 *4 Let Me Ride.shn
83aa77129ace7b91f6d81972e8a7c7ed *5 Elizabeth Reed.shn
b6281e5dc6de4a532a69b1dee6a05a73 *6 Blue Sky.shn
f842f2f106809d629622a71753ecac73 *7 Ramblin' Man.shn
4b8cf3f3a93d30603e4d36ab921082ab *8 Southbound.shn

length     expanded size    cdr  WAVE problems  fmt   ratio  filename
     4:16.09       45179612 B   ---   --   ---xx    shn  0.3793  1 Introduction.shn
     4:50.28       51221900 B   ---   --   ---xx    shn  0.4110  2 Good Time Feelin'.shn
     7:41.33       81398060 B   ---   --   ---xx    shn  0.4091  3 Tombstone Eyes.shn
     6:17.25       66561644 B   ---   --   ---xx    shn  0.3747  4 Let Me Ride.shn
    12:09.65      128748524 B   ---   --   ---xx    shn  0.3474  5 Elizabeth Reed.shn
     6:42.18       70955180 B   ---   --   ---xx    shn  0.3882  6 Blue Sky.shn
     6:47.46       71903036 B   ---   --   ---xx    shn  0.4590  7 Ramblin' Man.shn
     6:14.34       66053612 B   ---   --   ---xx    shn  0.4395  8 Southbound.shn
    54:59.33      582021568 B                            0.3964  (8 files)








ffp
1 introduction.flac:58694a30769bad1a97f55c334b1d14cb
2 good time feelin_.flac:19ea06e6e75f4feb7f7c3041bf7c166b
3 tombstone eyes.flac:8be22fa677164b0b50f3b86d4c46dcd0
4 let me ride.flac:c6c19a50ea69c53c0eeaa56352830d49
5 elizabeth reed.flac:5530750ca7da42ddef8bec56bc4f7dd7
6 blue sky.flac:564e8f7c594de29eb0c4e1f337f79ae5
7 ramblin_ man.flac:608ba0e8a88405785fa4c0ede92a69f2
8 southbound.flac:84d94f149941ed06bbb859ec101854ba
4528f8583d17f665a1a56122c6ab9ab4 *1 Introduction.shn
6ea81de58dcb9869aa2b7811fb70bae8 *2 Good Time Feelin'.shn
c0911120b54ebb107dedd9274f0f4aeb *3 Tombstone Eyes.shn
efd37e75c250b168da2ee150f6a77843 *4 Let Me Ride.shn
83aa77129ace7b91f6d81972e8a7c7ed *5 Elizabeth Reed.shn
b6281e5dc6de4a532a69b1dee6a05a73 *6 Blue Sky.shn
f842f2f106809d629622a71753ecac73 *7 Ramblin' Man.shn
4b8cf3f3a93d30603e4d36ab921082ab *8 Southbound.shn
;shntool st5 checksums generated by xACT 2.46 on 2019-07-06 14:20:22 +0000

58694a30769bad1a97f55c334b1d14cb [shntool] 1 Introduction.shn
19ea06e6e75f4feb7f7c3041bf7c166b [shntool] 2 Good Time Feelin'.shn
8be22fa677164b0b50f3b86d4c46dcd0 [shntool] 3 Tombstone Eyes.shn
c6c19a50ea69c53c0eeaa56352830d49 [shntool] 4 Let Me Ride.shn
5530750ca7da42ddef8bec56bc4f7dd7 [shntool] 5 Elizabeth Reed.shn
564e8f7c594de29eb0c4e1f337f79ae5 [shntool] 6 Blue Sky.shn
608ba0e8a88405785fa4c0ede92a69f2 [shntool] 7 Ramblin' Man.shn
84d94f149941ed06bbb859ec101854ba [shntool] 8 Southbound.shn
1 Introduction.flac:58694a30769bad1a97f55c334b1d14cb
2 Good Time Feelin'.flac:19ea06e6e75f4feb7f7c3041bf7c166b
3 Tombstone Eyes.flac:8be22fa677164b0b50f3b86d4c46dcd0
4 Let Me Ride.flac:c6c19a50ea69c53c0eeaa56352830d49
5 Elizabeth Reed.flac:5530750ca7da42ddef8bec56bc4f7dd7
6 Blue Sky.flac:564e8f7c594de29eb0c4e1f337f79ae5
7 Ramblin' Man.flac:608ba0e8a88405785fa4c0ede92a69f2
8 Southbound.flac:84d94f149941ed06bbb859ec101854ba

Comments
etreedb.org
For administrative requests email contact@etreedb.org
This website written by Tom H Anderson and maintained by the etreedb.org community.

Cached: Wed, 19 Jun 2024 18:36:55 EDT