Grateful Dead 12/30/78
Pauley Pavilion, UCLA, Los Angeles, CA
Source Summary
flac16; Set 1 Source Info: Master Soundboard Cassette (dbx) > Dat (Panasonic SV-3700) (16-bit/48k) > Dat (Panasonic SV-3800) (16-bit/44.1k); Transfer Info: Dat (Sony PCM-R500) > Tascam DA-3000 (16-bit/44.1k)> Adobe Audition 3.0 > TLH flac16
Grateful Dead
Pauley Pavilion
University of California, Los Angeles
Los Angeles, CA
Saturday December 30th, 1978

Source Info:
Master Soundboard Cassette (dbx) > Dat (Panasonic SV-3700) (16-bit/48k) > Dat (Panasonic SV-3800) (16-bit/44.1k)

Transfer Info:
Dat (Sony PCM-R500) > Tascam DA-3000 (16-bit/44.1k)> Adobe Audition 3.0 > TLH flac16

Notes:
- Thanks to Rob Eaton for the source Dat
- Thanks to Charlie Miller for the transfer and coordinating this effort
- Thanks to Charlie Miller for the shnid18092 soundboard source which supplies a 0:28 patch in "Stagger Lee"
- Mix issues in "Jack Straw"
- Pitch corrected

Mastered by Scott Clugston
July 13, 2018

Set One:
s1t01 - Jack Straw
s1t02 - They Love Each Other
s1t03 - Mama Tried >
s1t04 - Mexicali Blues
s1t05 - Loser
s1t06 - Looks Like Rain
s1t07 - Stagger Lee
s1t08 - Passenger
s1t09 - Tennessee Jed
s1t10 - New Minglewood Blues
s1t11 - Sugaree
s1t12 - Promised Land


    length     expanded size    cdr  WAVE problems  fmt   ratio  filename
     6:07.49       64854092 B   ---   --   ---xx   flac  0.5604  gd78-12-30 s1t01 Jack Straw.flac
     8:00.45       84777884 B   ---   --   ---xx   flac  0.5436  gd78-12-30 s1t02 They Love Each Other.flac
     2:29.23       26337740 B   ---   --   ---xx   flac  0.5791  gd78-12-30 s1t03 Mama Tried.flac
     5:18.44       56198732 B   ---   --   ---xx   flac  0.5579  gd78-12-30 s1t04 Mexicali Blues.flac
     7:54.25       83672444 B   ---   --   ---xx   flac  0.5619  gd78-12-30 s1t05 Loser.flac
    10:12.53      108081500 B   ---   --   ---xx   flac  0.5332  gd78-12-30 s1t06 Looks Like Rain.flac
     6:25.14       67946972 B   ---   --   ---xx   flac  0.5742  gd78-12-30 s1t07 Stagger Lee.flac
     5:58.12       63179468 B   ---   --   ---xx   flac  0.5716  gd78-12-30 s1t08 Passenger.flac
    11:32.71      122235836 B   ---   --   ---xx   flac  0.5385  gd78-12-30 s1t09 Tennessee Jed.flac
     6:36.65       70007324 B   ---   --   ---xx   flac  0.5625  gd78-12-30 s1t10 New Minglewood Blues.flac
    11:54.72      126118988 B   ---   --   ---xx   flac  0.5320  gd78-12-30 s1t11 Sugaree.flac
     4:36.50       48804044 B   ---   --   ---xx   flac  0.5815  gd78-12-30 s1t12 Promised Land.flac
    87:07.73      922215024 B                            0.5525  (12 files)


ffp
gd78-12-30 s1t01 Jack Straw.flac:7be55a8d5bce7cdb563b6050bdbb8b44
gd78-12-30 s1t02 They Love Each Other.flac:75b7de1f19b576ec56a8496786bcba25
gd78-12-30 s1t03 Mama Tried.flac:2cb73cd6743db5aa5311028f2f324ab3
gd78-12-30 s1t04 Mexicali Blues.flac:0af373dc0120256bfa4c8e03ee7bbb7f
gd78-12-30 s1t05 Loser.flac:2828d93f836b7f1f15cf0f1b0902b330
gd78-12-30 s1t06 Looks Like Rain.flac:ad9176108f385257c0cec623e678772a
gd78-12-30 s1t07 Stagger Lee.flac:e390ea91b694c9a592c7b28573b11b21
gd78-12-30 s1t08 Passenger.flac:d65694505525fec24319081eefa97cc7
gd78-12-30 s1t09 Tennessee Jed.flac:dca943e101df0780aab8868edca65106
gd78-12-30 s1t10 New Minglewood Blues.flac:13d1e90e27a2e8522eb0259b419f3e02
gd78-12-30 s1t11 Sugaree.flac:e1f980b3967dd8175747b3c7c378468a
gd78-12-30 s1t12 Promised Land.flac:33d21bf3dead8b7dd7271646f8870cfb
48dac300bdfc784ee7cb5c84d9d2093c *gd78-12-30 s1t01 Jack Straw.flac
a8586d0df17e87b48d8d0cb2b7c469f5 *gd78-12-30 s1t02 They Love Each Other.flac
d01759de0c0d4568cccad2a3ae865205 *gd78-12-30 s1t03 Mama Tried.flac
1c3605ae46735f2ddb69e7b1a34e352c *gd78-12-30 s1t04 Mexicali Blues.flac
49957f45d8ad0eaa451832a468c6b106 *gd78-12-30 s1t05 Loser.flac
8f58b4f34047c3086d9ef695798059a7 *gd78-12-30 s1t06 Looks Like Rain.flac
a47820a5a49bb757b1142bdf79f25fb2 *gd78-12-30 s1t07 Stagger Lee.flac
053ea570d7b3f406a7ce98b1bc60c59a *gd78-12-30 s1t08 Passenger.flac
902ee6f9bc8b30f08c5189fc2784f4df *gd78-12-30 s1t09 Tennessee Jed.flac
34483b1c43260e24429c94ccc63a0a6e *gd78-12-30 s1t10 New Minglewood Blues.flac
19974c236c04fb618e63fb66f16d43b8 *gd78-12-30 s1t11 Sugaree.flac
8835d258478bd1fe3b4bef3671c0bc11 *gd78-12-30 s1t12 Promised Land.flac

Comments
etreedb.org
For administrative requests email contact@etreedb.org
This website written by Tom H Anderson and maintained by the etreedb.org community.

Cached: Sun, 25 Oct 2020 15:22:27 EDT