Grateful Dead 09/02/78
Giants Stadium, East Rutherford, NJ
Source Summary
flac16/48kHz; Set 2 Recording Info: Master Soundboard Cassette (Maxell UDXLII)> Cassette (TDK) > Dat 16/48(Panasonic SV-3700)> Dat x3; Transfer Info: Dat (Sony PCM-R500 16/48) > Apogee aes/ebu cable > Tascam DA-3000 (.wav 16/48) > Adobe Audition 3.01 > TLH flac1648
Grateful Dead
Giants Stadium
East Rutherford, NJ
Saturday  September 2nd, 1978

Recording Info:
Master Soundboard Cassette (Maxell UDXLII)> Cassette (TDK) > Dat 16/48(Panasonic SV-3700)> Dat x3

Transfer Info:
Dat (Sony PCM-R500 16/48) > Apogee aes/ebu cable > Tascam DA-3000 (.wav 16/48) > Adobe Audition 3.01 > TLH flac1648

Notes:
- Thanks to Tim Dalton for the source Dat
- Thanks to Charlie Miller for the transfer and coordinating this effort
- Thanks to Steve Rolfe and Noah Weiner for the shnid15822 Sony ECM-33P source which supplies the final 5:38 of "Sugar Magnolia", as well as the "One More Saturday Night" encore in its entirety
- Pitch corrected (best as possible)

Mastered by Scott Clugston
August 2018

Set Two:
s2t01 - Good Lovin'
s2t02 - Scarlet Begonias >
s2t03 - Fire on the Mountain
s2t04 - Estimated Prophet >
s2t05 - Eyes of the World >
s2t06 - Drums >
s2t07 - Space >
s2t08 - Sugar Magnolia
s2t09 - Encore Break
s2t10 - One More Saturday Night


    length     expanded size    cdr  WAVE problems  fmt   ratio  filename
     7:58.773      91924524 B   cxx   --   ---xx   flac  0.5892  gd78-09-02 s2t01 Good Lovin'.flac
    14:40.293     169016364 B   cxx   --   ---xx   flac  0.5899  gd78-09-02 s2t02 Scarlet Begonias.flac
    13:39.507     157345324 B   cxx   --   ---xx   flac  0.5938  gd78-09-02 s2t03 Fire On The Mountain.flac
    14:51.187     171107884 B   cxx   --   ---xx   flac  0.5854  gd78-09-02 s2t04 Estimated Prophet.flac
    15:57.360     183813164 B   cxx   --   ---xx   flac  0.5839  gd78-09-02 s2t05 Eyes Of The World.flac
     7:44.613      89205804 B   cxx   --   ---xx   flac  0.5364  gd78-09-02 s2t06 Drums.flac
     0:49.933       9587244 B   cxx   --   ---xx   flac  0.5374  gd78-09-02 s2t07 Space.flac
    10:51.093     125009964 B   cxx   --   ---xx   flac  0.5993  gd78-09-02 s2t08 Sugar Magnollia.flac
     2:11.493      25246764 B   cxx   --   ---xx   flac  0.4580  gd78-09-02 s2t09 Encore Break.flac
     5:00.404      57677640 B   cxx   --   ---xx   flac  0.5893  gd78-09-02 s2t10 One More Saturday Night.flac
    93:44.657    1079934676 B                            0.5817  (10 files)


ffp
gd78-09-02 s2t01 Good Lovin'.flac:588efb918e33adf728df9fbf27142a3b
gd78-09-02 s2t02 Scarlet Begonias.flac:8d788be9731514618109f5cd410d3f5d
gd78-09-02 s2t03 Fire On The Mountain.flac:8c9425f32dee76ed9d2461daf8f19e56
gd78-09-02 s2t04 Estimated Prophet.flac:db01cec4f5fd9660a9789ff410b11a14
gd78-09-02 s2t05 Eyes Of The World.flac:6997b53eeb4f0c92344a6c03a562ec78
gd78-09-02 s2t06 Drums.flac:dd4ce65616f49a457e73df34f23b1815
gd78-09-02 s2t07 Space.flac:d3244e5a0716b053280afc6112ebf9b9
gd78-09-02 s2t08 Sugar Magnollia.flac:df02d1fdbd674934b153a28889dc3c23
gd78-09-02 s2t09 Encore Break.flac:bf54c3ad2caf31f2e7bdbc68fd2f1600
gd78-09-02 s2t10 One More Saturday Night.flac:f40546dd258728cd6b236e35e6fd3d77
e5d59eb0aaf51817807f2a996b42d68f *gd78-09-02 s2t01 Good Lovin'.flac
fe85f3fb76697857b6068d3b2880c253 *gd78-09-02 s2t02 Scarlet Begonias.flac
c54692a25af7dcbacc0d404aa9738ef6 *gd78-09-02 s2t03 Fire On The Mountain.flac
84f880e93748fa28c778c20d3e2fa209 *gd78-09-02 s2t04 Estimated Prophet.flac
9f8f6dfaa4d8a25b13b2754aae01aba0 *gd78-09-02 s2t05 Eyes Of The World.flac
88ab5bea1fd03a32786e0da829d76221 *gd78-09-02 s2t06 Drums.flac
2f0122363d7dfad8442a0005889604b6 *gd78-09-02 s2t07 Space.flac
cdc3605a9f8c8ab3ca52e34d468a0916 *gd78-09-02 s2t08 Sugar Magnollia.flac
8db9cbec3021060d10539ea1a40d24d1 *gd78-09-02 s2t09 Encore Break.flac
47e62ef1d91255116d87c8ab87ffa777 *gd78-09-02 s2t10 One More Saturday Night.flac

Comments
etreedb.org
For administrative requests email contact@etreedb.org
This website written by Tom H Anderson and maintained by the etreedb.org community.

Cached: Tue, 17 Sep 2019 13:26:42 EDT