Grateful Dead 09/16/78
Gizah Sound and Light Theater, Cairo, Egypt
Source Summary
flac16; Matrix 3 Source Mix - SBD (shnid = 88314) Recording Info: SBD -> Master Reel -> PCM -> Dat (48k) Transfer Info: Dat (Sony R500) -> Samplitude Professional v9.11 -> FLAC; All Transfers and Mastering By Charlie Miller + AUD (shnid = 140932) Recorded in "KHAFRE'S TEMPLE NEAR SPHINX, TOTAL ECLIPSE OF THE MOON, 23∫ " - Bear, "Maxell UDXLII from Nagra Dolby CRo2 NI-356", Transfer and; Mastering By Jim Blackwood, with listening assistance and track/flac by Jamie Waddell; This is 108845 with channels inverted - matrix mixing by Kevin Tobin
Grateful Dead
September 16, 1978
Gizah Sound And Light Theater
Giza, Egypt

SBD + AUD Matrix 3 Source Mix (44/16)

Set 1
01 Bertha ->
02 Good Lovin'
03 Candyman
04 Looks Like Rain
05 Row Jimmy
06 El Paso
07 Ramble on Rose
08 New Minglewood Blues
09 Deal

Set 2
10 Hamza el Din Set*
11 Ollin Arrageed ->
12 Fire on the Mountain ->
13 Iko Iko
14 I Need a Miracle ->
15 It's All Over Now
16 Sunrise
17 Shakedown Street ->
18 Drums ->
19 Space ->
20 Truckin' ->
21 Stella Blue ->
22  Around & Around

Encore
23 One More Saturday Night

Jerry Garcia - Guitar
Bob Weir - Guitar
Keith Godchaux - Keyboards
Donna Godchaux - Vocals
Phil Lesh - Bass
Bill Kreutzmann - Drums
Mickey Hart - Drums
Hamza el Din
Ollin Arrageed
*Abu Simbel Youth Society of Cairo

Audio Source Information
Original  SBD (shnid = 88314)

Recording Info:
SBD -> Master Reel -> PCM -> Dat (48k)

Transfer Info:
Dat (Sony R500) -> Samplitude Professional v9.11 -> FLAC
(3 Discs Audio / 2 Discs FLAC)

All Transfers and Mastering By Charlie Miller
November 7, 2007

Notes:
-- Set 2 is seamless
-- Ollin Arrageed with Hamza el Din
-- Thanks to chopper7 for the patch source
-- Portion missing from front end of FOTM patch

Original AUD (shnid = 140932)

Recorded in "KHAFRE'S TEMPLE NEAR SPHINX,
TOTAL ECLIPSE OF THE MOON, 23º "  - Bear

"Maxell UDXLII from Nagra Dolby CRo2 NI-356"

first tape laseled "reel #1"
second tape labeled "reel #2"

Transfer and Masterig By Jim Blackwood,
with listening assistance and track/flac by Jamie Waddell
Exactly as the tape sounds.
24 bit 96 kHz FLAC

Both SBD and AUD were patched with the following source:
AUD (shnid = 107305)
MOTB Release: 0139 16/44.1
Analog Audience Source: FOB Master Cassettes (MAC)
Medium Stock Brands: MAC = 3 x Maxell UDXL 90
Analog Lineage: 2 x Sony ecm 280 mics >> Sony 153sd >> MAC
Analog Sound Preservation: MAC >> Nakamichi CR7a => Korg MR-1000 >> DSF [1-bit 5.6448 MHz Stereo] >> Korg MR-1000 => Korg AudioGate >> WAV [24/96]
Taped By: Eldon Porray
Transfer By: Bob Menke
Mastering By: Bill Koucky, Derek McCabe
---------------------------------------------------------
- Mixed by kevtobin@yahoo.com
- FLAC conversion 15-SEP-2018 - Trader Little Helper
- Tagged 15-SEP-2018 - Tag&Rename
---------------------------------------------------------
Brokedown House Production

SHNTOOL OUTPUT:
    length     expanded size    cdr  WAVE problems  fmt   ratio  filename
     7:31.21       79605836 B   ---   --   -----    wav  1.0000  01 Bertha.wav
     7:49.43       82832780 B   ---   --   -----    wav  1.0000  02 Good Lovin'.wav
     9:34.06      101267756 B   ---   --   -----    wav  1.0000  03 Candyman.wav
     8:43.47       92367788 B   ---   --   -----    wav  1.0000  04 Looks Like Rain.wav
    11:21.27      120191948 B   ---   --   -----    wav  1.0000  05 Row Jimmy.wav
     4:43.03       49928300 B   ---   --   -----    wav  1.0000  06 El Paso.wav
     7:29.71       79370636 B   ---   --   -----    wav  1.0000  07 Ramble On Rose.wav
     6:40.69       70722332 B   ---   --   -----    wav  1.0000  08 New Minglewood Blues.wav
     6:52.65       72829724 B   ---   --   -----    wav  1.0000  09 Deal.wav
    20:58.69      222073532 B   ---   --   -----    wav  1.0000  10 Hamza el Din.wav
    17:09.73      181687340 B   ---   --   -----    wav  1.0000  11 Ollin Arrageed.wav
    14:02.74      148702892 B   ---   --   -----    wav  1.0000  12 Fire On The Mountain.wav
     7:02.15       74476124 B   ---   --   -----    wav  1.0000  13 Iko Iko.wav
     5:43.30       60575804 B   ---   --   -----    wav  1.0000  14 I Need A Miracle.wav
     7:18.21       77312636 B   ---   --   -----    wav  1.0000  15 It's All Over Now.wav
     4:04.58       43178060 B   ---   --   -----    wav  1.0000  16 Sunrise.wav
    15:42.19      166213532 B   ---   --   -----    wav  1.0000  17 Shakedown Street.wav
    11:59.36      126916316 B   ---   --   -----    wav  1.0000  18 Drums.wav
     5:18.15       56130524 B   ---   --   -----    wav  1.0000  19 Space.wav
     9:49.58      104036060 B   ---   --   -----    wav  1.0000  20 Truckin'.wav
     8:43.22       92308988 B   ---   --   -----    wav  1.0000  21 Stella Blue.wav
     8:59.48       95192540 B   ---   --   -----    wav  1.0000  22 Around And Around.wav
     5:28.39       57950972 B   ---   --   -----    wav  1.0000  23 One More Saturday Night.wav
   213:08.29     2255872420 B                            1.0000  (23 files)



dce405b2a8a65eac3d3fc0326d50d94a *01 Bertha.flac
fb0c0b280bb8a8b5d7ab7d22a1f0e0e1 *02 Good Lovin'.flac
6b88f48224a07ad3339733a6185420db *03 Candyman.flac
25d2fd1c364d983b61df3d8794a5021a *04 Looks Like Rain.flac
163c0d83923a86260cd1588bf26042d8 *05 Row Jimmy.flac
971999b3fc66d132711db3e5eb8c9299 *06 El Paso.flac
4870f8b77908ee6262eda35374ee8ece *07 Ramble On Rose.flac
53db125b95f3a6da2027c770c209d761 *08 New Minglewood Blues.flac
4c130ce4d0b500e136c99daeac328117 *09 Deal.flac
a21090a53e7dff353ce59ff59ea6e81f *10 Hamza el Din.flac
cb92fcb3dba51a7d0d8037f7f7b8c045 *11 Ollin Arrageed.flac
da344514c33eb99786a882a6060def9b *12 Fire On The Mountain.flac
c490d7cd6c2197e24ba3ddf074814a2d *13 Iko Iko.flac
730327f8811216c6d5cd83a3ca8fbcbe *14 I Need A Miracle.flac
b530127f13c7c3363aaf5071471d3026 *15 It's All Over Now.flac
53c8f1a1a35447c3d9d98ab7a04014f7 *16 Sunrise.flac
773942f972b9bfc5d7e53fb0a857ca89 *17 Shakedown Street.flac
2bca2e9cda5ade49411a4ad823a1c2d8 *18 Drums.flac
cfd1ed5333d7d71755a39165e314af2b *19 Space.flac
0c403dc2c448d2d71c4dc62f49b24160 *20 Truckin'.flac
8b07d09a08c3e0f55cadd39e7d326cdc *21 Stella Blue.flac
71e969bc03dc8ec3a0f56f5daab81a53 *22 Around And Around.flac
a13aac589504d7c1775de626616a3aa6 *23 One More Saturday Night.flac
ffp
01 Bertha.flac:22db0586bde1b5132ac4773337c09b91
02 Good Lovin'.flac:ac244b6f42b12298c4835731e59cb486
03 Candyman.flac:9dd55c2fcbd351107eb10faa84d4fe68
04 Looks Like Rain.flac:0a106112ba0be473fb53b1f9e30d57aa
05 Row Jimmy.flac:94099a9c0d217838f82b5b35bbeb42c6
06 El Paso.flac:f45ee513d216df66da94b9360e0e8ad5
07 Ramble On Rose.flac:4eb63d178eb8057c247bb57debc9963b
08 New Minglewood Blues.flac:ff34d7c294615d0275a790efa9b37dc7
09 Deal.flac:3fd8fb255aec0496b24362ba4b68998f
10 Hamza el Din.flac:8d5471dce0d21f104eb6fefa3b9fecdf
11 Ollin Arrageed.flac:57fd1a64d93724ba92c60f3484e5c1be
12 Fire On The Mountain.flac:37b3d977859e7dc68af8cf65d2b5d027
13 Iko Iko.flac:b25da6f7e2b5b505ed5db2eddfaac242
14 I Need A Miracle.flac:adf605649a98586dacd1b466bc7b5a9f
15 It's All Over Now.flac:1e3a5d0a03938b370cf94832cbf61eb5
16 Sunrise.flac:70648d80772c70acdb48d17119f6d56a
17 Shakedown Street.flac:172b74dddbc687fb310edae8ad443bd6
18 Drums.flac:4c538f26c5f50e65662bd300745686c6
19 Space.flac:006080a0bb21fca9a9dba426439d21e5
20 Truckin'.flac:388c46dbea159cf4e7a2bd1a252f0532
21 Stella Blue.flac:f2e82c6833bfdb27cee3cc31659063f7
22 Around And Around.flac:016dbd245ede21be5d9edf429a3788f5
23 One More Saturday Night.flac:a6cc3cab031faaf903642a3ac083c60b

Comments
etreedb.org
For administrative requests email contact@etreedb.org
This website written by Tom H Anderson and maintained by the etreedb.org community.

Cached: Sat, 19 Oct 2019 15:24:45 EDT