Charlie Hunter Trio 11/17/18
Red Light Cafe, Atlanta, GA
Source # 143779
Entered by Mark Goldey
Checksums ffp
Disc Counts 0 / 0
Media Size Compressed: 408.03 MB (427854922 bytes)
Uncompressed: 0.99 GB (1066799784 bytes)
Date Circulated
Date Added
11/18/2018
11/18/2018
Download Text | Download Zip
Other Sources
Source Summary
Source: Schoeps CCM4V's>Lunatec V2>Sound Devices 722 (24/44) FOB/DFC/KFC/ZFC/AARP Stage Lip, 6 1/2' High
DSP: Sound Devices 722>Sound Forge 10.0>CD Wave>flac(16) ID3 Tagged In Foobar 2000
Recorded By: Z-Man
Charlie Hunter Trio
Red Light Cafe
Atlanta, Georgia
11/17/2018

Source: Schoeps CCM4V's>Lunatec V2>Sound Devices 722 (24/44)
FOB/DFC/KFC/ZFC/AARP Stage Lip, 6 1/2' High
DSP: Sound Devices 722>Sound Forge 10.0>CD Wave>flac(16)
ID3 Tagged In Foobar 2000
Recorded By: Z-Man
Seeded By: Z-Man

Disc I

01 Greeting
02 What Is The Soul Of Man
03 Save Your Love For Me >
04 Move On Up A Little Higher
05 Walkin' After Midnight
06 Kata Agawa Percussion Solo
07 I Can Tell You're Lonely
08 Wade In The Water
09 They Call Me A Voodoo Woman
10 Band Introductions

Disc II

01 Walk On By
02 Walk With Me Dear Lord
03 Let The Good Times Roll
04 I'm So Lonesome I Could Cry
05 What Is This
06 Thanks/Band Introductions
Encore:
07 *Erie Canal
08 Thanks/Band Introductions/Outro

* Charlie Solo

Charlie Hunter - Seven String Guitar
Laita Ogawa - Drums
Dara Tucker - Vocals

charlie2018-11-17d01t01.flac:11fe95d551c7ca1311cb243313957fa3
charlie2018-11-17d01t02.flac:f61738c9032e66c8dcbd6f0445507678
charlie2018-11-17d01t03.flac:7edca14469212cdd67bdc9dc312049ce
charlie2018-11-17d01t04.flac:e466cdeb3f96a2159624b60fc936da61
charlie2018-11-17d01t05.flac:80baf79790af5fd6b64e06d5cbeb8e0a
charlie2018-11-17d01t06.flac:e224bbe69afa95cd46ed3a6158631406
charlie2018-11-17d01t07.flac:ed426b857935aec712d029b8515a32b7
charlie2018-11-17d01t08.flac:016a9e050b0fe0fbb1e3243e297d1d94
charlie2018-11-17d01t09.flac:1fa911e755bb83d8ce6ebada94a72181
charlie2018-11-17d01t10.flac:0ad182cd8218c0dfd50385dfa453752d
charlie2018-11-17d02t01.flac:988a0d6aec7bc915684ab4dace9c879f
charlie2018-11-17d02t02.flac:16031bf749c8e066b75f7e731af8451c
charlie2018-11-17d02t03.flac:98bfe6ff6335115add737a6f40254945
charlie2018-11-17d02t04.flac:eb4d9bb189037bc532f9446584b7325b
charlie2018-11-17d02t05.flac:d4e2b3c4256cf6048200a5954cb851f1
charlie2018-11-17d02t06.flac:9cdf1eb16671eba74efc876bd030f225
charlie2018-11-17d02t07.flac:6f5e568d4e67d8979577c391278caecd
charlie2018-11-17d02t08.flac:96a3a0d68214ef22e22245ec4cbcbf6a

length expanded size cdr WAVE problems fmt ratio filename
0:34.48 6110540 B --- -- ---xx flac 0.3163 charlie2018-11-17d01t01.flac
5:59.53 63452300 B --- -- ---xx flac 0.5070 charlie2018-11-17d01t02.flac
6:29.50 68737244 B --- -- ---xx flac 0.4032 charlie2018-11-17d01t03.flac
5:53.39 62360972 B --- -- ---xx flac 0.4655 charlie2018-11-17d01t04.flac
6:20.65 67184924 B --- -- ---xx flac 0.3898 charlie2018-11-17d01t05.flac
5:49.63 61711820 B --- -- ---xx flac 0.3284 charlie2018-11-17d01t06.flac
7:40.19 81188732 B --- -- ---xx flac 0.4444 charlie2018-11-17d01t07.flac
6:48.02 71975948 B --- -- ---xx flac 0.4564 charlie2018-11-17d01t08.flac
8:30.40 90058124 B --- -- ---xx flac 0.4639 charlie2018-11-17d01t09.flac
1:36.35 17016764 B --- -- ---xx flac 0.3807 charlie2018-11-17d01t10.flac
7:39.43 81068780 B --- -- ---xx flac 0.4222 charlie2018-11-17d02t01.flac
9:13.60 97690364 B --- -- ---xx flac 0.3232 charlie2018-11-17d02t02.flac
7:48.59 82694012 B --- -- ---xx flac 0.3818 charlie2018-11-17d02t03.flac
5:46.45 61140284 B --- -- ---xx flac 0.2895 charlie2018-11-17d02t04.flac
7:56.34 84046412 B --- -- ---xx flac 0.4438 charlie2018-11-17d02t05.flac
0:32.04 5654252 B --- -- ---xx flac 0.4495 charlie2018-11-17d02t06.flac
4:56.08 52233260 B --- -- ---xx flac 0.2561 charlie2018-11-17d02t07.flac
1:10.54 12475052 B --- -- ---xx flac 0.4080 charlie2018-11-17d02t08.flac
100:47.46 1066799784 B 0.4011 (18 files)
ffp
charlie2018-11-17d01t01.flac:11fe95d551c7ca1311cb243313957fa3
charlie2018-11-17d01t02.flac:f61738c9032e66c8dcbd6f0445507678
charlie2018-11-17d01t03.flac:7edca14469212cdd67bdc9dc312049ce
charlie2018-11-17d01t04.flac:e466cdeb3f96a2159624b60fc936da61
charlie2018-11-17d01t05.flac:80baf79790af5fd6b64e06d5cbeb8e0a
charlie2018-11-17d01t06.flac:e224bbe69afa95cd46ed3a6158631406
charlie2018-11-17d01t07.flac:ed426b857935aec712d029b8515a32b7
charlie2018-11-17d01t08.flac:016a9e050b0fe0fbb1e3243e297d1d94
charlie2018-11-17d01t09.flac:1fa911e755bb83d8ce6ebada94a72181
charlie2018-11-17d01t10.flac:0ad182cd8218c0dfd50385dfa453752d
charlie2018-11-17d02t01.flac:988a0d6aec7bc915684ab4dace9c879f
charlie2018-11-17d02t02.flac:16031bf749c8e066b75f7e731af8451c
charlie2018-11-17d02t03.flac:98bfe6ff6335115add737a6f40254945
charlie2018-11-17d02t04.flac:eb4d9bb189037bc532f9446584b7325b
charlie2018-11-17d02t05.flac:d4e2b3c4256cf6048200a5954cb851f1
charlie2018-11-17d02t06.flac:9cdf1eb16671eba74efc876bd030f225
charlie2018-11-17d02t07.flac:6f5e568d4e67d8979577c391278caecd
charlie2018-11-17d02t08.flac:96a3a0d68214ef22e22245ec4cbcbf6a

Comments
Date User Comment
etreedb.org
For administrative requests email contact@etreedb.org
This website written by Tom H Anderson and maintained by the etreedb.org community.

Cached: Sun, 29 Nov 2020 11:45:54 EST