New Riders of the Purple Sage 12/31/81
Oakland Auditorium, Oakland, CA
Source # 143780
Entered by ziko
Checksums .md5 , ffp
Disc Counts 0 / 0
Media Size Compressed: 299 MB (313524224 bytes)
Uncompressed: 525 MB (550502400 bytes)
Date Circulated
Date Added
11/18/2018
11/18/2018
Source Summary
flac16; Matrix 2 Source Mix - SBD (shnid = 89215) SBD > Cm > CD > EAC > Flac Transfered and seeded by Rob Berger + AUD (shnid = 139777) AUD: Nakamichi CM300/CP4 shotguns > Sony TC-D5M > Maxell MX - matrix mixing by Kevin Tobin
New Riders of the Purple Sage
December 31, 1981
Oakland Auditorium,
Oakland, CA

SBD + AUD Matrix 2 Source Mix (44/16)

01 Henry
02 Night For Making Love
03 The Way She Dances
04 Dirty Business
05 Full Moon At Midnight
06 Up Against The Wall Redneck
07 Minglewood Blues
08 Panama Red
09 Last Lonely Eagle

John Dawson - guitar
David Nelson - guitars
Buddy Cage - pedal steel
Allen Kemp - bass
Patrick Shanahan - drums

Audio Source Information
Original  SBD (shnid = 89215)

source: sbd cassette master

lineage: sbd cassette master>cdrs>eac>flac
seeded to Lossless Legs by Rob Berger
notes: opened for Grateful Dead

Original  AUD (shnid = 139777)

AUD: Nakamichi CM300/CP4 shotguns > Sony TC-D5M > Maxell MX.
Recording by Brian Schley.

Transfer: MAC > Nakamichi CR-5A > Edirol FA-66 > Wavelab 2448 >
R8Brain SRC > CD-Wave > TLH > FLAC 1644 tagged. Transferred by
Andrew F. 11/2017
---------------------------------------------------------
- Mixed by kevtobin@yahoo.com
- FLAC conversion 18-NOV-2018 - Trader Little Helper
- Tagged 18-NOV-2018 - Tag&Rename
---------------------------------------------------------
Brokedown House Production

SHNTOOL OUTPUT:
    length     expanded size    cdr  WAVE problems  fmt   ratio  filename
     4:33.040      52423724 B   cxx   --   -----    wav  1.0000  01 Henry.wav
     4:13.453      48663084 B   cxx   --   -----    wav  1.0000  02 Night For Making Love.wav
     4:25.320      50941484 B   cxx   --   -----    wav  1.0000  03 The Way She Dances.wav
    11:45.787     135511084 B   cxx   --   -----    wav  1.0000  04 Dirty Business.wav
     4:29.507      51745324 B   cxx   --   -----    wav  1.0000  05 Full Moon At Midnight.wav
     4:27.120      51287084 B   cxx   --   -----    wav  1.0000  06 Up Against The Wall Redneck.wav
     5:27.027      62789164 B   cxx   --   -----    wav  1.0000  07 Minglewood Blues.wav
     3:11.387      36746284 B   cxx   --   -----    wav  1.0000  08 Panama Red.wav
     5:17.040      60871724 B   cxx   --   -----    wav  1.0000  09 Last Lonely Eagle.wav
    47:49.680     550978956 B                            1.0000  (9 files)


d845a32fff98712d5d75f4e47b12451d *01 Henry.flac
0f5116c4cf6ab0ab8b33cb735919cba7 *02 Night For Making Love.flac
a473769986417bc3c6be31506ae74531 *03 The Way She Dances.flac
178b6a98547485cdf2d3aa4ab0f43d1a *04 Dirty Business.flac
837b3e6a788aa1fa7f7d34d508cc77fe *05 Full Moon At Midnight.flac
84cf988032e635f044f2a7dc2f92f3a1 *06 Up Against The Wall Redneck.flac
45f878a015f1c68297e86f00dc865cae *07 Minglewood Blues.flac
7051b2c5355c2ca5c6af187abdb6f94a *08 Panama Red.flac
57e15c0e77ed00bc26cd8acee5b25020 *09 Last Lonely Eagle.flac
ffp
01 Henry.flac:25e9c097ad44cfcf5a3b85324c906cc5
02 Night For Making Love.flac:a7191f2dd35ed94fa232884cc372acd1
03 The Way She Dances.flac:33fb4ad5730b57537517cd483f6a0d00
04 Dirty Business.flac:563de957289e821175d357c6b5881038
05 Full Moon At Midnight.flac:d85681e6cf27d6abd04481c5ea8651da
06 Up Against The Wall Redneck.flac:c35e9a9095739124b10ac1752a35ec8f
07 Minglewood Blues.flac:ba8f320db058db502377a587d06d15b5
08 Panama Red.flac:e3c3d82498dfc93a5e4269da19344cff
09 Last Lonely Eagle.flac:fb677a61185b389dc6180d8ef5049375

Comments
etreedb.org
For administrative requests email contact@etreedb.org
This website written by Tom H Anderson and maintained by the etreedb.org community.

Cached: Thu, 5 Aug 2021 17:59:36 EDT