Sound Tribe Sector 9 05/22/99
Wilmer's Park, Brandywine, MD
Source # 144173
Entered by md
Checksums ffp
Disc Counts 0 / 0
Media Size Compressed: 280.92 MB (294561539 bytes)
Uncompressed: 595.22 MB (624131864 bytes)
Date Circulated
Date Added
03/27/2017
12/09/2018
Download Text | Download Zip

Other Sources
Source Summary
flac1644 akg480/ck61 > mv100 > d100; Wavelab (tracks/fades/Waves L3) FLAC (lvl 6); Taped by Gray
Sound Tribe Sector 9
May 22, 1999
Allgood Music Festival
Wilmer's Park - Brandywine, MD

Source: akg480/ck61 > mv100 > d100
Transfer: Wavelab (tracks/fades/Waves L3) > FLAC (lvl 6)
Taped by Gray(grayproulx at gmail)

01. Kid Parade / Introduction
02. Freq 2 > Freq 3
03. Gobnugget >
04. Evasive Manuvers >
05. Dub Jam
06. Vibe Becomes You >
07. Moonsockets >
08. Monkey Music >
09. Moonsockets
Encore
10. 4 year Puma



    length     expanded size    cdr  WAVE problems  fmt   ratio  filename
     2:57.61       31366316 B   ---   --   ---xx   flac  0.4073  sts9-1999-05-22d1t01_Introduction.flac
     6:51.60       72641564 B   ---   --   ---xx   flac  0.4616  sts9-1999-05-22d1t02_Freq_2_Freq_3.flac
     6:34.44       69605132 B   ---   --   ---xx   flac  0.4835  sts9-1999-05-22d1t03_Gobnugget.flac
     8:17.21       87720236 B   ---   --   ---xx   flac  0.4859  sts9-1999-05-22d1t04_Evasive_Manuvers.flac
     3:51.02       40753148 B   ---   --   ---xx   flac  0.3893  sts9-1999-05-22d1t05_Dub_Jam.flac
     6:04.42       64308428 B   ---   --   ---xx   flac  0.4865  sts9-1999-05-22d1t06_Vibe_Becomes_You.flac
     6:27.61       68410316 B   ---   --   ---xx   flac  0.4943  sts9-1999-05-22d1t07_Moonsockets.flac
     4:55.46       52146236 B   ---   --   ---xx   flac  0.4607  sts9-1999-05-22d1t08_Monkey_Music.flac
     3:41.72       39153788 B   ---   --   ---xx   flac  0.4895  sts9-1999-05-22d1t09_Moonsockets.flac
     9:15.53       98026700 B   ---   --   ---xx   flac  0.4879  sts9-1999-05-22d1t10_4_Year_Puma.flac
    58:58.12      624131864 B                            0.4720  (10 files)


ffp
sts9-1999-05-22d1t01_Introduction.flac:01ae75dffb1cf4fd73f4d25021135a1b
sts9-1999-05-22d1t02_Freq 2 Freq 3.flac:826b52bb1b18e9afbc1cd5fdd405718a
sts9-1999-05-22d1t03_Gobnugget.flac:c4d15abad3cf34a4317c482870e1a47e
sts9-1999-05-22d1t04_Evasive Manuvers.flac:211b2659e981f4470495f87724d29044
sts9-1999-05-22d1t05_Dub Jam.flac:71aaab44c0fbcc1d5a6c3696f3de136e
sts9-1999-05-22d1t06_Vibe Becomes You.flac:f594f992ad9543548cc304d189ed3aa6
sts9-1999-05-22d1t07_Moonsockets.flac:910be3f442f97358d034b2564ee5da5d
sts9-1999-05-22d1t08_Monkey Music.flac:19bc98d6d60d57a6625de17b86f63d93
sts9-1999-05-22d1t09_Moonsockets.flac:2af323336d560885b3bd841e51c378c5
sts9-1999-05-22d1t10_4 year Puma.flac:e054c9a1cab97d26d9803bfd88d538cd

Comments
Date User Comment
etreedb.org
For administrative requests email contact@etreedb.org
This website written by Tom H Anderson and maintained by the etreedb.org community.

Cached: Wed, 31 May 2023 05:51:31 EDT