Grateful Dead Compilations 10/??/80
Various, Unknown, Unknown
Source # 144287
Entered by Matt Vernon
Checksums flac-md5 , ffp
Disc Counts 0 / 0
Media Size
Date Circulated
Date Added
12/20/2018
12/21/2018
Download Text | Download Zip

Other Sources
Source Summary
flac16; Source: SBD Healy's mix-down reels > Cassette, via Richie & Rip; Transfer: MA-90 > Nakamichi CR-5A > Edirol FA-66 > Wavelab 2448 > CD-Wave (24bit output) > TLH > FLAC 2448 tagged, Andrew F. 12/2018
GRATEFUL DEAD
October 1980
Dan Healy rough mixes for Dead Set

01 Feel Like a Stranger
from 10/04/80
mix date 06/02/81
edited version released on Dead Set LP & CD

02 Friend of the Devil
from 10/23/80 >> Sorry, typo in text file, this is from 10/27/80
mix date 06/03/81
edited version released on Dead Set LP & CD

03 Passenger
from 10/11/80
mix date 06/04/81
edited version released on Dead Set LP & CD

04 Althea
from 10/23/80
mix date 06/05/81
released on Go to Heaven expanded CD

05 High Time
from 10/25/80
mix date 06/06/81
released on Dead Set expanded CD

06 Row Jimmy
from 10/10/80
mix date 06/08/81
released on Dead Set expanded CD

07 Candyman
from 10/29/80
mix date 06/09/81
released on Dead Set LP & CD

08 Little Red Rooster
from 10/29/80
mix date 06/10/81
edited version released on Dead Set LP & CD

Source: SBD Healy's mix-down reels > Cassette, via Richie & Rip.
Transfer: MA-90 > Nakamichi CR-5A > Edirol FA-66 > Wavelab 2448 >
CD-Wave (24bit output) > TLH > FLAC 2448 tagged, Andrew F. 12/2018

length expanded size cdr WAVE problems fmt ratio filename
8:19.320 143804204 B cxx -- ---xx flac 0.7131 gd1980-10-xxt01.flac
10:35.680 183075884 B cxx -- ---xx flac 0.7390 gd1980-10-xxt02.flac
4:52.280 84176684 B cxx -- ---xx flac 0.7605 gd1980-10-xxt03.flac
8:21.533 144441644 B cxx -- ---xx flac 0.7043 gd1980-10-xxt04.flac
8:48.013 152067884 B cxx -- ---xx flac 0.6942 gd1980-10-xxt05.flac
10:04.013 173955884 B cxx -- ---xx flac 0.6974 gd1980-10-xxt06.flac
7:24.520 128021804 B cxx -- ---xx flac 0.6919 gd1980-10-xxt07.flac
10:50.083 187224002 B cxx -- ---xx flac 0.7279 gd1980-10-xxt08.flac
69:15.443 1196767990 B 0.7147 (8 files)


f49a0d8cf8acd2805e80f9058b3e6613 *gd1980-10-xxt01.flac
df3fa9f890c5478b4325c094be026be9 *gd1980-10-xxt02.flac
5e3f2edb2810ddf68b3754665e26e027 *gd1980-10-xxt03.flac
4ceb78bd9a3f669b1ef103ddfcce2814 *gd1980-10-xxt04.flac
b3491e5868fb61455a74a75683509053 *gd1980-10-xxt05.flac
2527eea999b144c51c8807004184ad7a *gd1980-10-xxt06.flac
db459a6b42c43b9e77520ebf7b890576 *gd1980-10-xxt07.flac
58dd65f95feecb6b5851511af9bf1640 *gd1980-10-xxt08.flac
ffp
gd1980-10-xxt01.flac:2074bad264dae261a9454cc8ed7da43e
gd1980-10-xxt02.flac:42709319304c3d785a5f59eb4a4971f5
gd1980-10-xxt03.flac:4300a909ea68dfe04a80f307c8461a22
gd1980-10-xxt04.flac:92ee85c59c2655c128e74da5a551d24c
gd1980-10-xxt05.flac:10edfa514e0e511a4c8b78334f95cb01
gd1980-10-xxt06.flac:3ba0a6a36242d8c9819e340b74c104e3
gd1980-10-xxt07.flac:79917b283aa3cf3dd2908d5d4ba989a1
gd1980-10-xxt08.flac:600cc7114fad15999c2ad499688fb1e5

Comments
Date User Comment
etreedb.org
For administrative requests email contact@etreedb.org
This website written by Tom H Anderson and maintained by the etreedb.org community.

Cached: Wed, 29 May 2024 01:34:12 EDT