Grateful Dead 08/30/78
Red Rocks Amphitheatre, Morrison, CO
Source Summary
flac24 1st Set: Mark Severson's Master Audience Cassettes; Sony ECM-270 mics (row 20, seats 73-75)> Sony TC-158SD (Maxell UDXLII); 2nd Set: Mark Severson's Master Audience Cassettes; Nakamichi 301 mics (row 20, seats 73-75)(patched out of Barry Glassberg) > Sony TC-158SD (Maxell UDXLII); Transfer Info: Master Cassettes (Nakamichi DR-1)> Tascam DA-3000 (DSF 1-bit/5.6 MHz) > dBpoweramp 24/96 > Adobe Audition CC 2019 > TLH flac2496
Grateful Dead
Red Rocks Amphitheatre
Morrison, CO
Wednesday  August 30th, 1978

Source Info:
1st Set: Mark Severson's Master  Audience Cassettes; Sony ECM-270 mics (row 20, seats 73-75)> Sony TC-158SD (Maxell UDXLII)
2nd Set: Mark Severson's Master  Audience Cassettes; Nakamichi 301 mics (row 20, seats 73-75)(patched out of Barry Glassberg) > Sony TC-158SD (Maxell UDXLII)

Transfer Info:
Master Cassettes (Nakamichi DR-1)> Tascam DA-3000 (DSF 1-bit/5.6 MHz) > dBpoweramp 24/96 > Adobe Audition CC 2019 > TLH flac2496

Notes:
- Thanks to Mark Severson for the master cassettes
- Thanks to Charlie Miller for the transfer and coordinating this effort
- Thanks to T. Wiley for the shnid11479 audience source which supplies an 0:18 patch in "The Other One", as well as a 0:12 patch in "Drums"
- Pitch corrected

Mastered by Scott Clugston
February 2019

Set One:
s1t01 - Crowd
s1t02 - Promised Land
s1t03 - Sugaree
s1t04 - Mexicali Blues >
s1t05 - Mama Tried
s1t06 - Stagger Lee
s1t07 - Looks Like Rain
s1t08 - Deal

Set Two:
s2t01 - Crowd
s2t02 - I Need A Miracle
s2t03 - Brown Eyed Women
s2t04 - Estimated Prophet >
s2t05 - The Other One >
s2t06 - Eyes of the World >
s2t07 - Drums >
s2t08 - Space >
s2t09 - If I Had The World To Give >
s2t10 - Iko Iko >
s2t11 - Around & Around
s2t12 - Encore Break
s2t13 - US Blues

    length     expanded size    cdr  WAVE problems  fmt   ratio  filename
     5:01.147     173460524 B   cxx   --   ---xx   flac  0.6584  gd78-08-30 s1t01 Crowd.flac
     8:08.693     281487404 B   cxx   --   ---xx   flac  0.6774  gd78-08-30 s1t02 Promised Land.flac
    21:32.253     744337964 B   cxx   --   ---xx   flac  0.6791  gd78-08-30 s1t03 Sugaree.flac
     3:11.493     110300204 B   cxx   --   ---xx   flac  0.6892  gd78-08-30 s1t04 Mexicali Blues.flac
     5:49.947     201569324 B   cxx   --   ---xx   flac  0.6718  gd78-08-30 s1t05 Mama Tried.flac
     9:23.507     324579884 B   cxx   --   ---xx   flac  0.6732  gd78-08-30 s1t06 Stagger Lee.flac
    11:29.973     397424684 B   cxx   --   ---xx   flac  0.6715  gd78-08-30 s1t07 Looks Like Rain.flac
     8:04.931     279320534 B   cxx   --   ---xx   flac  0.6866  gd78-08-30 s1t08 Deal.flac
     4:22.587     151249964 B   cxx   --   ---xx   flac  0.6423  gd78-08-30 s2t01 Crowd.flac
    11:37.987     402040364 B   cxx   --   ---xx   flac  0.6824  gd78-08-30 s2t02 I Need A Miracle.flac
     9:27.333     326784044 B   cxx   --   ---xx   flac  0.6709  gd78-08-30 s2t03 Brown Eyed Women.flac
    12:16.707     424343084 B   cxx   --   ---xx   flac  0.6820  gd78-08-30 s2t04 Estimated Prophet.flac
     9:06.533     314803244 B   cxx   --   ---xx   flac  0.6830  gd78-08-30 s2t05 The Other One.flac
    17:08.787     592581164 B   cxx   --   ---xx   flac  0.6723  gd78-08-30 s2t06 Eyes Of The World.flac
    12:11.493     421340204 B   cxx   --   ---xx   flac  0.6570  gd78-08-30 s2t07 Drums.flac
     7:37.867     263731244 B   cxx   --   ---xx   flac  0.6588  gd78-08-30 s2t08 Space.flac
    10:29.533     362611244 B   cxx   --   ---xx   flac  0.6844  gd78-08-30 s2t09 If I Had The World To Give.flac
    10:39.387     368286764 B   cxx   --   ---xx   flac  0.6885  gd78-08-30 s2t10 Iko Iko.flac
     8:56.973     309296684 B   cxx   --   ---xx   flac  0.6942  gd78-08-30 s2t11 Around & Around.flac
     2:56.147     101460524 B   cxx   --   ---xx   flac  0.6650  gd78-08-30 s2t12 Encore Break.flac
     6:13.068     214887308 B   cxx   --   ---xx   flac  0.6967  gd78-08-30 s2t13 US Blues.flac
   195:46.346    6765896358 B                            0.6764  (21 files)


f30989dce818feb16a5ec6ed88c5050f *gd78-08-30 s1t01 Crowd.flac
906124c61d1bba337bb2b431c138ad63 *gd78-08-30 s1t02 Promised Land.flac
0fbe27663ecaa985d4d1896ebcb8dfe5 *gd78-08-30 s1t03 Sugaree.flac
eeb2cc80e9ce60e97c1f34bf887a9370 *gd78-08-30 s1t04 Mexicali Blues.flac
cf3d532d33ba7a1282d1ad840130cb98 *gd78-08-30 s1t05 Mama Tried.flac
f33e9c34d74596f24af40a4a875f1fcc *gd78-08-30 s1t06 Stagger Lee.flac
2a46e7458fd7cb270651b98b85a295aa *gd78-08-30 s1t07 Looks Like Rain.flac
d55e8c2fc44b361ecf20e3fae7749ff1 *gd78-08-30 s1t08 Deal.flac
f9dc9a9c431bc62b7695bdc7d832faed *gd78-08-30 s2t01 Crowd.flac
0714fccebef33b3d429ff2ee1d66be62 *gd78-08-30 s2t02 I Need A Miracle.flac
4ba5da458fbe377ae7b57fd17bc6e89e *gd78-08-30 s2t03 Brown Eyed Women.flac
11659106363a2bdd359d58bcd7b9d54f *gd78-08-30 s2t04 Estimated Prophet.flac
3e5ac5f74200e86d5a9c96deecd1e4d6 *gd78-08-30 s2t05 The Other One.flac
99c1737bd754c2da199f74bfd3e1ad0a *gd78-08-30 s2t06 Eyes Of The World.flac
9192339df65d97d229d0716b74a12a88 *gd78-08-30 s2t07 Drums.flac
4cd7876cca18c458feb6d24977e06f3c *gd78-08-30 s2t08 Space.flac
40504fd39403681ecef9d5c04bab2338 *gd78-08-30 s2t09 If I Had The World To Give.flac
cd53df465f91313c2105441f674ad867 *gd78-08-30 s2t10 Iko Iko.flac
da36f23f3d113787adf6840a529220ec *gd78-08-30 s2t11 Around & Around.flac
780c42f5c5ca2e35bcc203c82ffaf228 *gd78-08-30 s2t12 Encore Break.flac
e5a564494751277ad6bda04b4bb15e12 *gd78-08-30 s2t13 US Blues.flac
ffp
gd78-08-30 s1t01 Crowd.flac:db0baa4ae7339ed0f2b25b1da224d8ef
gd78-08-30 s1t02 Promised Land.flac:e24261c8ec6b1bd9bc2ffe0f93b3de14
gd78-08-30 s1t03 Sugaree.flac:7bb31a546850e51215fc364e674c2275
gd78-08-30 s1t04 Mexicali Blues.flac:6dd34e3fb3fa0687080d6b0cfd735ca2
gd78-08-30 s1t05 Mama Tried.flac:34df419b7e6eda6d8fc7ed0868258077
gd78-08-30 s1t06 Stagger Lee.flac:6a0473af8a5fe2c93ac4ef2a473621ee
gd78-08-30 s1t07 Looks Like Rain.flac:701e70b47ac3dfc2427ccad5f9a24db2
gd78-08-30 s1t08 Deal.flac:60fe02c4ef235f216b4291454c44b6ad
gd78-08-30 s2t01 Crowd.flac:5c7e2138cca364fe4c30fb603da8a0cb
gd78-08-30 s2t02 I Need A Miracle.flac:1f04e6040464ed4cc8e809dcd45b6b23
gd78-08-30 s2t03 Brown Eyed Women.flac:23d5050a7a3aaeffd962760c7566243e
gd78-08-30 s2t04 Estimated Prophet.flac:b435d624f5d2e214c8e9d566f256341b
gd78-08-30 s2t05 The Other One.flac:d0d82f93233db1b9644f3b0113a2db10
gd78-08-30 s2t06 Eyes Of The World.flac:1474f0c1937c84e6592775093b6bd441
gd78-08-30 s2t07 Drums.flac:b23e3d4c33429a2b99d70a1d478f8daa
gd78-08-30 s2t08 Space.flac:9415a0d3ab3da77d11e10dcb7f7591b2
gd78-08-30 s2t09 If I Had The World To Give.flac:5e0072d93b49c2d0fb704de3c293b588
gd78-08-30 s2t10 Iko Iko.flac:c0db353e27dc9f813dc13444c8a0a4dc
gd78-08-30 s2t11 Around & Around.flac:5406791843692406f8c755ea3eb9b27f
gd78-08-30 s2t12 Encore Break.flac:d40d1c00018e28a88c3a1fa7a309a847
gd78-08-30 s2t13 US Blues.flac:13792e488ae9e9d5e2532b87838f93e3

Comments
etreedb.org
For administrative requests email contact@etreedb.org
This website written by Tom H Anderson and maintained by the etreedb.org community.

Cached: Tue, 17 Sep 2019 09:24:42 EDT