Grateful Dead 08/31/78
Red Rocks Amphitheatre, Morrison, CO
Source Summary
flac16/48kHz; Mark Severson's Master Audience Cassettes; Nakamichi 301 mics (row 20, seats 77-80)(patched out of Barry Glassberg) > Sony TC-158SD (Maxell UDXLII); Transfer Info: Master Cassettes (Nakamichi DR-1)> Tascam DA-3000 (DSF 1-bit/5.6 MHz) > dBpoweramp 24/96 > Adobe Audition CC 2019 > TLH flac2496; 24-bit > 16-bit via dBpoweramp
Grateful Dead
Red Rocks Amphitheatre
Morrison, CO
Thursday  August 31st, 1978

This is a 16/48 fileset. 24-bit > 16-bit via dBpoweramp

Source Info:
Mark Severson's Master  Audience Cassettes; Nakamichi 301 mics (row 20, seats 77-80)(patched out of Barry Glassberg) > Sony TC-158SD (Maxell UDXLII)

Transfer Info:
Master Cassettes (Nakamichi DR-1)> Tascam DA-3000 (DSF 1-bit/5.6 MHz) > dBpoweramp 24/96 > Adobe Audition CC 2019 > TLH flac2496

Notes:
- Thanks to Mark Severson for the master cassettes
- Thanks to Charlie Miller for the transfer and coordinating this effort
- Thanks to T. Wiley for the shnid114809 audience source which supplies "Ship Of Fools", "Samson & Delilah", the first 4:29 of "Terrapin Station", a 0:40 patch in "Drums", as well as a 0:15 patch in "Ollin Arrageed"
- Pitch corrected

Mastered by Scott Clugston
February 2019

Set One:
s1t01 - Crowd
s1t02 - Mississippi Half-Step Uptown Toodeloo >
s1t03 - El Paso
s1t04 - Peggy O
s1t05 - New Minglewood Blues
s1t06 - Candyman
s1t07 - From The Heart Of Me
s1t08 - Jack Straw

Set Two:
s2t01 - Crowd
s2t02 - Shakedown Street >
s2t03 - Good Lovin'
s2t04 - Ship Of Fools
s2t05 - Samson & Delilah
s2t06 - Terrapin Station >
s2t07 - Playin' In The Band >
s2t08 - Drums >
s2t09 - Ollin Arageed  >
s2t10 - Not Fade Away >
s2t11 - Black Peter >
s2t12 - Sugar Magnolia
s2t13 - Encore Break
s2t14 - Johnny B. Goode

    length     expanded size    cdr  WAVE problems  fmt   ratio  filename
     3:13.240      37102124 B   cxx   --   ---xx   flac  0.5439  gd78-08-31 s1t01 Crowd.flac
    10:43.227     123499564 B   cxx   --   ---xx   flac  0.6138  gd78-08-31 s1t02 Mississippi Half-Step.flac
     7:11.093      82769964 B   cxx   --   ---xx   flac  0.5938  gd78-08-31 s1t03 El Paso.flac
    11:22.040     130951724 B   cxx   --   ---xx   flac  0.5953  gd78-08-31 s1t04 Peggy O.flac
     7:02.760      81169964 B   cxx   --   ---xx   flac  0.5917  gd78-08-31 s1t05 New Minglewood Blues.flac
     9:32.947     110005804 B   cxx   --   ---xx   flac  0.5948  gd78-08-31 s1t06 Candyman.flac
     6:11.427      71313964 B   cxx   --   ---xx   flac  0.6059  gd78-08-31 s1t07 From The Heart Of Me.flac
     6:47.587      78256804 B   cxx   --   ---xx   flac  0.6286  gd78-08-31 s1t08 Jack Straw.flac
     1:07.453      12951084 B   cxx   --   ---xx   flac  0.5436  gd78-08-31 s2t01 Crowd.flac
     6:36.280      76085804 B   cxx   --   ---xx   flac  0.6347  gd78-08-31 s2t02 Shakedown Street.flac
     7:30.480      86492204 B   cxx   --   ---xx   flac  0.6290  gd78-08-31 s2t03 Good Lovin'.flac
     8:16.333      95296044 B   cxx   --   ---xx   flac  0.5347  gd78-08-31 s2t04 Ship Of Fools.flac
     9:12.240     106030124 B   cxx   --   ---xx   flac  0.5636  gd78-08-31 s2t05 Samson & Delilah.flac
    10:52.080     125199404 B   cxx   --   ---xx   flac  0.5796  gd78-08-31 s2t06 Terrapin Station.flac
    13:50.987     159549484 B   cxx   --   ---xx   flac  0.6136  gd78-08-31 s2t07 Playin' In The Band.flac
    16:21.840     188513324 B   cxx   --   ---xx   flac  0.5872  gd78-08-31 s2t08 Drums.flac
     3:36.707      41607724 B   cxx   --   ---xx   flac  0.6461  gd78-08-31 s2t09 Ollin Arrageed.flac
    12:42.173     146337324 B   cxx   --   ---xx   flac  0.6415  gd78-08-31 s2t10 Not Fade Away.flac
    10:31.560     121259564 B   cxx   --   ---xx   flac  0.5871  gd78-08-31 s2t11 Black Peter.flac
     8:15.387      95114284 B   cxx   --   ---xx   flac  0.6367  gd78-08-31 s2t12 Sugar Magnolia.flac
     1:21.627      15672364 B   cxx   --   ---xx   flac  0.5655  gd78-08-31 s2t13 Encore Break.flac
     4:13.615      48694172 B   cxx   --   ---xx   flac  0.6199  gd78-08-31 s2t14 Johnny B. Goode.flac
   176:33.083    2033872816 B                            0.6009  (22 files)



5bdafe472af84310af429e796de9ef4f *gd78-08-31 s1t01 Crowd.flac
1f1925b40d55fd69e2226121e9f26669 *gd78-08-31 s1t02 Mississippi Half-Step.flac
9dd3f1e79913af3b1018efdaac63c712 *gd78-08-31 s1t03 El Paso.flac
5f75ffa970bf483b38c5d438c04bea48 *gd78-08-31 s1t04 Peggy O.flac
e28761d614259cd938953f779d831bd5 *gd78-08-31 s1t05 New Minglewood Blues.flac
34033853340994d6c14069fdc934abe9 *gd78-08-31 s1t06 Candyman.flac
a10fdf5d6a554a88dd2100db4c5b4a7c *gd78-08-31 s1t07 From The Heart Of Me.flac
4fed86db51ceb4c1e7c37d8205e43204 *gd78-08-31 s1t08 Jack Straw.flac
1f50ab2980962a26db19122d311053f4 *gd78-08-31 s2t01 Crowd.flac
b3c5cde0437fc120f88a6979bb7d7055 *gd78-08-31 s2t02 Shakedown Street.flac
ac95cf58cd99492b9443e61fb1832d3a *gd78-08-31 s2t03 Good Lovin'.flac
fd034894696c7bfb2eeb4fd7e60d1347 *gd78-08-31 s2t04 Ship Of Fools.flac
693e6e99d4cb1f55394f1925cba1a66d *gd78-08-31 s2t05 Samson & Delilah.flac
e4b0de8a86fbd181e0e2e683598015f1 *gd78-08-31 s2t06 Terrapin Station.flac
a72aa3e38c1b9c5ad47e9e005e815e61 *gd78-08-31 s2t07 Playin' In The Band.flac
9b851d850797543ecd4f34f0106066c5 *gd78-08-31 s2t08 Drums.flac
8f8fa9f0cb8e2cb53598a73913cdc304 *gd78-08-31 s2t09 Ollin Arrageed.flac
1e3c9617b6915e8a4feabda35168c242 *gd78-08-31 s2t10 Not Fade Away.flac
e804fd59a297b004263a0c3dc6184fbb *gd78-08-31 s2t11 Black Peter.flac
8935e38fac64bba29921077b98031558 *gd78-08-31 s2t12 Sugar Magnolia.flac
8f8fc1d6eda20ba5735a44dfbb08da0a *gd78-08-31 s2t13 Encore Break.flac
bbfa94e5e72e627ce02c0bd6a2b48f4a *gd78-08-31 s2t14 Johnny B. Goode.flac
ffp
gd78-08-31 s1t01 Crowd.flac:2f77dacf59dd17baa15ad76907de5935
gd78-08-31 s1t02 Mississippi Half-Step.flac:94e11103ec076de8017a5bc7784079f6
gd78-08-31 s1t03 El Paso.flac:2db108fa090d0e0186e548e269215815
gd78-08-31 s1t04 Peggy O.flac:adb43f87f86d3191eb2fff6e7a4815cf
gd78-08-31 s1t05 New Minglewood Blues.flac:dc74cde2bdeddfdedf89f7cff36977dc
gd78-08-31 s1t06 Candyman.flac:9d7204c9a13fac54d656a344a133b7af
gd78-08-31 s1t07 From The Heart Of Me.flac:69d7f9e0a17661a3b291b9b6088d6874
gd78-08-31 s1t08 Jack Straw.flac:3b6dd52981f557af1d694bf082baa67d
gd78-08-31 s2t01 Crowd.flac:6da4ad057effe2b10bb736609f548d4f
gd78-08-31 s2t02 Shakedown Street.flac:ef47d67159e9527997f3fedbebe08485
gd78-08-31 s2t03 Good Lovin'.flac:d2855912635815446ce400de0b893032
gd78-08-31 s2t04 Ship Of Fools.flac:e54f7240bd6ceb90938c9cabc2b13060
gd78-08-31 s2t05 Samson & Delilah.flac:054558c9ba678d7b7f624abe593e7446
gd78-08-31 s2t06 Terrapin Station.flac:5b85e8e7f23d09190b90183550394cc1
gd78-08-31 s2t07 Playin' In The Band.flac:35ea2b85ec1914c390c7f96ea0e9884f
gd78-08-31 s2t08 Drums.flac:ea151fdb82424dc15fd84ac6af8c245f
gd78-08-31 s2t09 Ollin Arrageed.flac:a2f053fdb6f964f46b41545c3ff8cbbb
gd78-08-31 s2t10 Not Fade Away.flac:c1419bf3eebd4e2b2b1368c57ed32ec1
gd78-08-31 s2t11 Black Peter.flac:4f194b69360888e42944c2ef2dd730a6
gd78-08-31 s2t12 Sugar Magnolia.flac:7b6a172074d4cd8a504f09f398d22657
gd78-08-31 s2t13 Encore Break.flac:afb446d81616f4a04a134cb88625e3d9
gd78-08-31 s2t14 Johnny B. Goode.flac:5400cd8d790e67315107e2ad4bc2fd55

Comments
etreedb.org
For administrative requests email contact@etreedb.org
This website written by Tom H Anderson and maintained by the etreedb.org community.

Cached: Tue, 17 Sep 2019 09:21:42 EDT