Grateful Dead 06/25/78
Autzen Stadium, University Of Oregon, Eugene, OR
Source # 145144
Entered by Matt Vernon
Checksums flac-md5 , ffp
Disc Counts 0 / 0
Media Size Compressed: 3.74 GB (4013707264 bytes)
Date Circulated
Date Added
02/11/2019
02/11/2019
Source Summary
flac24; Mark Severson's Master Audience Cassettes; Sony ECM-270 mics > Sony TC-158SD (Maxell UDXLII); Transfer Info: Master Cassettes (Nakamichi DR-1)> Tascam DA-3000 (DSF 1-bit/5.6 MHz) > dBpoweramp 24/96 > Adobe Audition CC 2019 > TLH flac2496
Grateful Dead
Autzen Stadium
University Of Oregon
Eugene, Oregon
Sunday  June 25th, 1978

Source Info:
Mark Severson's Master Audience Cassettes; Sony ECM-270 mics > Sony TC-158SD (Maxell UDXLII)

Transfer Info:
Master Cassettes (Nakamichi DR-1)> Tascam DA-3000 (DSF 1-bit/5.6 MHz) > dBpoweramp 24/96 > Adobe Audition CC 2019 > TLH flac2496

Notes:
- Thanks to Mark Severson for the master cassettes
- Thanks to Charlie Miller for the transfer and coordinating this effort
- Thanks to P. Hartman and J. Cotsman for the shnid7048 soundboard which supplies a 0:07 patch in "Eyes Of The World", as well as a0:08 patch in "Around & Around"
- "Drums" & "Space" with Ken Babbs and The Thunder Machine
- 1st audience source in general circulation (2/2019)
- Thanks to Joe B. Jones for verifying the pitch

Mastered by Scott Clugston
February 2019

Set One:
s1t01 - Crowd/Banter/Jokes/Uncle BoBo
s1t02 - Promised Land
s1t03 - They Love Each Other
s1t04 - Me & My Uncle >
s1t05 - Big River
s1t06 - Candyman
s1t07 - Technical Difficulties
s1t08 - Passenger
s1t09 - Peggy O
s1t10 - New Minglewood Blues

Set Two:
s2t01 - Crowd
s2t02 - Samson & Delilah
s2t03 - Friend Of The Devil
s2t04 - Estimated Prophet >
s2t05 - Eyes Of The World >
s2t06 - Drums >
s2t07 - Space >
s2t08 - Not Fade Away >
s2t09 - Goin' Down The Road Feeling Bad >
s2t10 - Around & Around
s2t11 - Encore Break
s2t12 - US Blues

    length     expanded size    cdr  WAVE problems  fmt   ratio  filename
    13:01.613     450209324 B   cxx   --   ---xx   flac  0.6508  gd78-06-25 s1t01 Banter-Uncle BoBo.flac
     5:19.973     184304684 B   cxx   --   ---xx   flac  0.6803  gd78-06-25 s1t02 Promised Land.flac
     7:57.040     274775084 B   cxx   --   ---xx   flac  0.6707  gd78-06-25 s1t03 They Love Each Other.flac
     2:57.960     102505004 B   cxx   --   ---xx   flac  0.6855  gd78-06-25 s1t04 Me & My Uncle.flac
     7:52.267     272025644 B   cxx   --   ---xx   flac  0.6731  gd78-06-25 s1t05 Big River.flac
     8:00.840     276963884 B   cxx   --   ---xx   flac  0.6711  gd78-06-25 s1t06 Candyman.flac
     2:14.387      77406764 B   cxx   --   ---xx   flac  0.6498  gd78-06-25 s1t07 Technical Difficulties.flac
     8:16.000     285696044 B   cxx   --   ---xx   flac  0.6701  gd78-06-25 s1t08 Passenger.flac
    10:21.533     358003244 B   cxx   --   ---xx   flac  0.6678  gd78-06-25 s1t09 Peggy O.flac
     5:49.800     201484790 B   cxx   --   ---xx   flac  0.6873  gd78-06-25 s1t10 New Minglewood Blues.flac
     1:43.720      59742764 B   cxx   --   ---xx   flac  0.6536  gd78-06-25 s2t01 Crowd.flac
     9:14.973     319664684 B   cxx   --   ---xx   flac  0.6734  gd78-06-25 s2t02 Samson & Delilah.flac
    13:42.547     473786924 B   cxx   --   ---xx   flac  0.6617  gd78-06-25 s2t03 Friend Of The Devil.flac
    13:22.947     462497324 B   cxx   --   ---xx   flac  0.6841  gd78-06-25 s2t04 Estimated Prophet.flac
    11:41.333     403968044 B   cxx   --   ---xx   flac  0.6770  gd78-06-25 s2t05 Eyes Of The World.flac
    10:49.853     374315564 B   cxx   --   ---xx   flac  0.6770  gd78-06-25 s2t06 Drums.flac
     5:39.227     195394604 B   cxx   --   ---xx   flac  0.6747  gd78-06-25 s2t07 Space.flac
     9:18.240     321546284 B   cxx   --   ---xx   flac  0.6725  gd78-06-25 s2t08 Not Fade Away.flac
     8:38.000     298368044 B   cxx   --   ---xx   flac  0.6845  gd78-06-25 s2t09 Goin' Down The Road Feeling Bad.flac
     9:05.160     314012204 B   cxx   --   ---xx   flac  0.6807  gd78-06-25 s2t10 Around & Around.flac
     1:31.573      52746284 B   cxx   --   ---xx   flac  0.6572  gd78-06-25 s2t11 Encore Break.flac
     5:52.107     202813922 B   cxx   --   ---xx   flac  0.6937  gd78-06-25 s2t12 US Blues.flac
   172:31.094    5962231112 B                            0.6732  (22 files)


f1e40a0a8b36d06e1e6f7a9cd1564e4c *gd78-06-25 s1t01 Banter-Uncle BoBo.flac
9b7e0fcf3fb5dbdedbe1e57ea93442fd *gd78-06-25 s1t02 Promised Land.flac
20e057f3a934c9b4312d71ea3760c8ac *gd78-06-25 s1t03 They Love Each Other.flac
06ce807ba506861d9e37d52a90b07f5b *gd78-06-25 s1t04 Me & My Uncle.flac
21d1947abfa88b62319e1e94283e0e28 *gd78-06-25 s1t05 Big River.flac
29b0008cebbc8835dd8fc8b606fc963b *gd78-06-25 s1t06 Candyman.flac
3392fd9f5764cc48cfe8cf3cd832f31d *gd78-06-25 s1t07 Technical Difficulties.flac
1221e73b84b5cda213829e777cb7f842 *gd78-06-25 s1t08 Passenger.flac
5caba797e2eee4d77ebdcb63a015516e *gd78-06-25 s1t09 Peggy O.flac
0b9890b36d411afe2fdf5f473c9eccef *gd78-06-25 s1t10 New Minglewood Blues.flac
54002ee0a9a23cb4b49f02090d821476 *gd78-06-25 s2t01 Crowd.flac
d66fd0a1ca29d4d3ed6f2a2e90b6afed *gd78-06-25 s2t02 Samson & Delilah.flac
988cccb396fc21b484919e5ed6c900f4 *gd78-06-25 s2t03 Friend Of The Devil.flac
d8c9ea8555bfa8076725b7b9748211dd *gd78-06-25 s2t04 Estimated Prophet.flac
83076983c63b9bc683d2a5859d153f0e *gd78-06-25 s2t05 Eyes Of The World.flac
519f04ac64065c94623368ec3fe4db0e *gd78-06-25 s2t06 Drums.flac
04dc76bcda40195e9ff696868131b925 *gd78-06-25 s2t07 Space.flac
8e512f76e0c8d21a8c0fbde363b668ae *gd78-06-25 s2t08 Not Fade Away.flac
41644547af49c597d0d345e1b2b30220 *gd78-06-25 s2t09 Goin' Down The Road Feeling Bad.flac
a40a431ac5bc14369ef5047df3320a52 *gd78-06-25 s2t10 Around & Around.flac
0a8003b627c93cd25705041c773834b1 *gd78-06-25 s2t11 Encore Break.flac
b29af973b270ae4d5430f69e574f9f68 *gd78-06-25 s2t12 US Blues.flac
ffp
gd78-06-25 s1t01 Banter-Uncle BoBo.flac:865efe9072a69241fbc2c6aaf362d448
gd78-06-25 s1t02 Promised Land.flac:f871ad806b159cb0935b6b59b8f1f754
gd78-06-25 s1t03 They Love Each Other.flac:b430c544b65e8a459c00ef3b35a9eed1
gd78-06-25 s1t04 Me & My Uncle.flac:3389b8bda37190617da979d1ecb94876
gd78-06-25 s1t05 Big River.flac:4786a7d1ea6596a544a09b209ab19446
gd78-06-25 s1t06 Candyman.flac:2f46f78c22c5b90774c8999fb3d72688
gd78-06-25 s1t07 Technical Difficulties.flac:8ff64c14924fe585e47647065fb28be8
gd78-06-25 s1t08 Passenger.flac:b9ca4a075e8f1c47e1c2b81343247704
gd78-06-25 s1t09 Peggy O.flac:a1a3a8a29e6e393a067c4386ac44f38d
gd78-06-25 s1t10 New Minglewood Blues.flac:3dfb8ac7f038fef451dd80a36fa2617c
gd78-06-25 s2t01 Crowd.flac:48e338af2b36f25a5a0546045f28c73b
gd78-06-25 s2t02 Samson & Delilah.flac:5fc6662f962d53646c96aac2211ac211
gd78-06-25 s2t03 Friend Of The Devil.flac:42b716278c686cf5cfb3c5771840bc74
gd78-06-25 s2t04 Estimated Prophet.flac:108c78cd5206113970e48fa6d16e8cf2
gd78-06-25 s2t05 Eyes Of The World.flac:3fc474d747b44f462ca0dfec06668773
gd78-06-25 s2t06 Drums.flac:74ce1a44f977384dcf19b70c262ecefc
gd78-06-25 s2t07 Space.flac:84fe8b71f7030fc96eb85b7472521141
gd78-06-25 s2t08 Not Fade Away.flac:3213599b715440c99a84bfa7e6d3a74f
gd78-06-25 s2t09 Goin' Down The Road Feeling Bad.flac:b032af7c2291a548d95d821255de3f44
gd78-06-25 s2t10 Around & Around.flac:f273571c072df45c4c614a7fe5c511ac
gd78-06-25 s2t11 Encore Break.flac:6e3bffe766f4f33911fe19eea4d8031f
gd78-06-25 s2t12 US Blues.flac:747a2a968da9b239da6101a805366c33

Comments
Other Sources (comments)
SBD> MC> ?> D> CD> EAC>... (0) flac16 ; Recording Info:... (1) flac16/48kHz ; Mark... (0)
Date User Comment
etreedb.org
For administrative requests email contact@etreedb.org
This website written by Tom H Anderson and maintained by the etreedb.org community.

Cached: Tue, 17 Sep 2019 09:24:55 EDT