Grateful Dead 12/27/78
Golden Hall, Community Concourse, San Diego, CA
Source Summary
flac24; Mark Severson's Master Audience Cassettes; Sony ECM-270 mics (section 404, row 8, seats 12-14) > Sony TC-158SD (TDK SA-C90); Transfer Info: Master Cassettes (Nakamichi DR-1)> Tascam DA-3000 (DSF 1-bit/5.6 MHz) > dBpoweramp 24/96 > Adobe Audition CC 2019 > TLH flac2496
Grateful Dead
Golden Hall
Community Concourse
San Diego, CA
Wednesday  December 27th, 1978

Source Info:
Mark Severson's Master Audience Cassettes; Sony ECM-270 mics (section 404, row 8, seats 12-14) > Sony TC-158SD (TDK SA-C90)

Transfer Info:
Master Cassettes (Nakamichi DR-1)> Tascam DA-3000 (DSF 1-bit/5.6 MHz) > dBpoweramp 24/96 > Adobe Audition CC 2019 > TLH flac2496

Notes:
- Thanks to Mark Severson for the master cassettes
- Thanks to Charlie Miller for the transfer and coordinating this effort
- Thanks to Greg Schug, Steve Martin and Jack Warner for the shnid21480 Neumann SM69 source which supplies the first 6:48 of "Terrapin Station", as well as a 0:13 patch in "Black Peter"
- Thanks to Joe B. Jones for verifying the pitch

Mastered by Scott Clugston
February 2019

Set One:
s1t01 - Crowd
s1t02 - Promised Land
s1t03 - Friend Of The Devil
s1t04 - Cassidy
s1t05 - Peggy O
s1t06 - Mama Tried >
s1t07 - Mexicali Blues
s1t08 - Mississippi Half-Step Uptown Toodeloo >
s1t09 - Franklin's Tower
s1t10 - The Music Never Stopped

Set Two:
s2t01 - Crowd
s2t02 - Bertha >
s2t03 - Good Lovin'
s2t04 - Ship Of Fools
s2t05 - Samson & Delilah
s2t06 - Terrapin Station >
s2t07 - Playin' In The Band >
s2t08 - Drums >
s2t09 - Not Fade Away >
s2t10 - Black Peter >
s2t11 - Around & Around
s2t12 - Encore Break
s2t13 - US Blues

    length     expanded size    cdr  WAVE problems  fmt   ratio  filename
     1:05.453      37701164 B   cxx   --   ---xx   flac  0.6670  gd78-12-27 s1t01 Crowd.flac
     5:34.747     192814124 B   cxx   --   ---xx   flac  0.7125  gd78-12-27 s1t02 Promised Land.flac
    10:15.253     354385964 B   cxx   --   ---xx   flac  0.6822  gd78-12-27 s1t03 Friend Of The Devil.flac
     6:19.773     218749484 B   cxx   --   ---xx   flac  0.6870  gd78-12-27 s1t04 Cassidy.flac
     9:20.187     322667564 B   cxx   --   ---xx   flac  0.6776  gd78-12-27 s1t05 Peggy O.flac
     2:30.613      86753324 B   cxx   --   ---xx   flac  0.6886  gd78-12-27 s1t06 Mama Tried.flac
     6:21.400     219686444 B   cxx   --   ---xx   flac  0.6797  gd78-12-27 s1t07 Mexicali Blues.flac
     8:18.680     287239724 B   cxx   --   ---xx   flac  0.6803  gd78-12-27 s1t08 Mississippi Half-Step.flac
    12:19.880     426170924 B   cxx   --   ---xx   flac  0.6802  gd78-12-27 s1t09 Franklin's Tower.flac
     8:43.395     301475390 B   cxx   --   ---xx   flac  0.6870  gd78-12-27 s1t10 The Music Never Stopped.flac
     1:19.413      45742124 B   cxx   --   ---xx   flac  0.6754  gd78-12-27 s2t01 Crowd.flac
     7:41.587     265873964 B   cxx   --   ---xx   flac  0.6816  gd78-12-27 s2t02 Bertha.flac
     9:08.587     315985964 B   cxx   --   ---xx   flac  0.6844  gd78-12-27 s2t03 Good Lovin'.flac
     9:13.613     318881324 B   cxx   --   ---xx   flac  0.7131  gd78-12-27 s2t04 Ship Of Fools.flac
     9:06.227     314626604 B   cxx   --   ---xx   flac  0.6782  gd78-12-27 s2t05 Samson & Delilah.flac
    11:52.507     410403884 B   cxx   --   ---xx   flac  0.5849  gd78-12-27 s2t06 Terrapin Station.flac
    10:31.667     363840044 B   cxx   --   ---xx   flac  0.6840  gd78-12-27 s2t07 Playin' In The Band.flac
     6:15.587     216337964 B   cxx   --   ---xx   flac  0.6739  gd78-12-27 s2t08 Drums.flac
     8:48.453     304389164 B   cxx   --   ---xx   flac  0.6890  gd78-12-27 s2t09 Not Fade Away.flac
    10:39.813     368532524 B   cxx   --   ---xx   flac  0.6760  gd78-12-27 s2t10 Black Peter.flac
     8:14.853     285035564 B   cxx   --   ---xx   flac  0.6919  gd78-12-27 s2t11 Around & Around.flac
     3:36.053     124446764 B   cxx   --   ---xx   flac  0.6717  gd78-12-27 s2t12 Encore Break.flac
     5:43.976     198130328 B   cxx   --   ---xx   flac  0.6865  gd78-12-27 s2t13 US Blues.flac
   173:01.718    5979870322 B                            0.6780  (23 files)


a07a996dfb70c2f6d57884ba18288dea *gd78-12-27 s1t01 Crowd.flac
7d563a3b6f20c7f1fffc1a926aa3b0d8 *gd78-12-27 s1t02 Promised Land.flac
c6255c085772d2dd6dcf27acdb9c7dc1 *gd78-12-27 s1t03 Friend Of The Devil.flac
8ee10d58866527fd49b9b6f0e038e82f *gd78-12-27 s1t04 Cassidy.flac
c3593c89ab4becc892707058a36e1be4 *gd78-12-27 s1t05 Peggy O.flac
e5f5ba17163d028763bc0d9b595bf848 *gd78-12-27 s1t06 Mama Tried.flac
989a5d95c0317fcf6e5703ee92daf3dd *gd78-12-27 s1t07 Mexicali Blues.flac
5a81be2baeca79cdf3bc49eeb3f5fe2d *gd78-12-27 s1t08 Mississippi Half-Step.flac
eb71ebf8a4abafe991431c0adac03f06 *gd78-12-27 s1t09 Franklin's Tower.flac
1b7d17614f381137eb1613e6b1b54c3c *gd78-12-27 s1t10 The Music Never Stopped.flac
cf1769d3de97176ab712b2d7d1088202 *gd78-12-27 s2t01 Crowd.flac
e7d8587e710bfcd0d602ffc3d589d9c4 *gd78-12-27 s2t02 Bertha.flac
97e7a9538541d7b2daace4ea98d2d778 *gd78-12-27 s2t03 Good Lovin'.flac
715ae4fd23fb5142d0a36582e7b16003 *gd78-12-27 s2t04 Ship Of Fools.flac
25bfce0caf776fe1ae4d4e0fa53d02d5 *gd78-12-27 s2t05 Samson & Delilah.flac
d2a2bca31e2f391da5800dc3b4dcbf8f *gd78-12-27 s2t06 Terrapin Station.flac
4040bc495a539979ce7343f4b07839b7 *gd78-12-27 s2t07 Playin' In The Band.flac
a50079fdf1b4512ada1c710e2be8e778 *gd78-12-27 s2t08 Drums.flac
ee132bf22acaa6817a33699d557fa813 *gd78-12-27 s2t09 Not Fade Away.flac
599dbdcb158c9f18991ff335b2ad829b *gd78-12-27 s2t10 Black Peter.flac
ee080b82883c1249b8cb42208b5f5e03 *gd78-12-27 s2t11 Around & Around.flac
7c8bda3def3c038f14145c86533b2579 *gd78-12-27 s2t12 Encore Break.flac
63bb3ddf6eab00d5cc5fc7e579cc9a49 *gd78-12-27 s2t13 US Blues.flac
ffp
gd78-12-27 s1t01 Crowd.flac:1f053d40a13d6e9203ef659edd55f865
gd78-12-27 s1t02 Promised Land.flac:6e0e305514e6cbefb23b589a7b4d93e2
gd78-12-27 s1t03 Friend Of The Devil.flac:78220c98d5cb41192cfabd864dd7e430
gd78-12-27 s1t04 Cassidy.flac:1a74cfc59e1dae2cdf9c0fb05d73b83b
gd78-12-27 s1t05 Peggy O.flac:fea462f6e77fe8050fb23dd710e2602e
gd78-12-27 s1t06 Mama Tried.flac:7fd16cf5339a221f3b78dcbe7decd697
gd78-12-27 s1t07 Mexicali Blues.flac:1f77a81177394458f3534c1750304ad4
gd78-12-27 s1t08 Mississippi Half-Step.flac:579942db1b1b22e862bd12afd271e11b
gd78-12-27 s1t09 Franklin's Tower.flac:8286fc8393c23dfd246f572c195d5035
gd78-12-27 s1t10 The Music Never Stopped.flac:b56788cde1a8c22143b1ee52a2b31411
gd78-12-27 s2t01 Crowd.flac:5256e517a76d6e64dc8040d4545e6fee
gd78-12-27 s2t02 Bertha.flac:afda95ec10eeed06c49ff22b9d4def31
gd78-12-27 s2t03 Good Lovin'.flac:7c70097efb6baf7102cec22bd2000a41
gd78-12-27 s2t04 Ship Of Fools.flac:d4fe66376b4d2ded4703fdb828f83df5
gd78-12-27 s2t05 Samson & Delilah.flac:ae3b0a0bae51a496eb31a662684e997a
gd78-12-27 s2t06 Terrapin Station.flac:0a457006ee42b247718e8092d856c7e5
gd78-12-27 s2t07 Playin' In The Band.flac:7b606599bdd732a0de204137f794dedc
gd78-12-27 s2t08 Drums.flac:97c96b31878def83a32b94d86c13ca7e
gd78-12-27 s2t09 Not Fade Away.flac:85afe40f9e08b231e9fadf152e1104da
gd78-12-27 s2t10 Black Peter.flac:684a0aaaf80e2bf1f15866cf747782a4
gd78-12-27 s2t11 Around & Around.flac:612ed8f1082ea890a4ff1666171ac4b0
gd78-12-27 s2t12 Encore Break.flac:c542e2393a2e9c6c765a762e1352ccca
gd78-12-27 s2t13 US Blues.flac:b3330b540113bcabde2c3483952fdfb9

Comments
etreedb.org
For administrative requests email contact@etreedb.org
This website written by Tom H Anderson and maintained by the etreedb.org community.

Cached: Sat, 19 Oct 2019 16:42:22 EDT